<?xml version="1.0" standalone="no"?>
<!DOCTYPE svg PUBLIC "-//W3C//DTD SVG 1.1//EN" "http://www.w3.org/Graphics/SVG/1.1/DTD/svg11.dtd" >
<svg xmlns="http://www.w3.org/2000/svg">
<metadata></metadata>
<defs>
<font id="kg_ways_to_say_goodbyeregular" horiz-adv-x="658" >
<font-face units-per-em="2048" ascent="1638" descent="-410" />
<missing-glyph horiz-adv-x="468" />
<glyph horiz-adv-x="0" />
<glyph unicode="&#xd;" horiz-adv-x="468" />
<glyph unicode=" "  horiz-adv-x="468" />
<glyph unicode="&#x09;" horiz-adv-x="468" />
<glyph unicode="&#xa0;" horiz-adv-x="468" />
<glyph unicode="!" horiz-adv-x="184" d="M22 60q0 34 22 47t48 11t48 -17t22 -37q0 -32 -22 -45t-48 -12t-48 16t-22 37zM28 426l4 774q16 10 35 7t37 -15t30 -33t14 -47l-6 -880q-62 -10 -94 52q-10 16 -15 45t-5 97z" />
<glyph unicode="&#x22;" horiz-adv-x="484" d="M62 584q10 12 19 21t18 23t18 34t19 54q10 46 -7 69t-35 43t-25 47t21 83q50 -10 82 -40t49 -69t21 -80t-4 -73q-20 -84 -69 -114t-107 2zM268 602q10 12 19 21t18 23t18 34t19 54q10 46 -7 69t-35 43t-25 47t21 83q50 -10 82 -40t49 -69t21 -80t-4 -73q-20 -84 -69 -114 t-107 2z" />
<glyph unicode="#" horiz-adv-x="792" d="M49 529q3 19 16 37t34 30t47 12l80 -2v106l-158 2q-10 16 -7 35t16 37t34 30t47 12l68 -2l2 166q16 10 35 7t37 -16t30 -34t12 -47l-2 -76l104 -2l2 156q16 10 35 7t37 -16t30 -34t12 -47l-2 -66l192 -2q6 -62 -54 -94q-8 -4 -17 -7t-23 -5t-35 -3t-55 -1h-8l-2 -108 l182 -2q6 -62 -54 -94q-16 -8 -39 -13t-89 -3l-2 -194q-62 -6 -94 54q-8 16 -13 41t-3 93v6h-106l-2 -182q-62 -6 -94 54q-8 16 -13 40t-3 88l-170 2q-10 16 -7 35zM338 606l106 -2v108h-104z" />
<glyph unicode="$" horiz-adv-x="696" d="M19 296q17 52 79 66q-2 -54 12 -97t39 -76t58 -54t69 -31l6 492q-46 28 -89 58t-76 66t-51 80t-14 100q8 118 78 188t160 94l2 88q30 4 56 -10t42 -42q2 -4 4 -10l4 -12h18q40 -2 86 -21t80 -50t46 -73t-16 -90q-50 46 -93 83t-109 41v-10l-6 -412q54 -32 108 -68t94 -82 t59 -104t7 -136q-22 -126 -98 -190t-178 -84l-2 -116q-16 -10 -36 -7t-38 15t-31 33t-15 47v22h-14q-90 18 -150 73t-84 116t-7 113zM174 902q-10 -52 23 -93t87 -75l4 334q-96 -44 -114 -166zM396 104q56 16 99 59t59 117q8 42 0 77t-29 64t-53 54t-70 49z" />
<glyph unicode="%" horiz-adv-x="518" d="M19 62q-5 24 1 50l406 1100q30 -6 51 -28t25 -54q4 -20 -2 -49t-28 -93l-368 -998q-18 -4 -36 5t-31 26t-18 41zM68 1110q0 36 25 51t55 14t55 -17t25 -42q0 -40 -25 -55t-55 -12t-55 20t-25 41zM314 74q0 36 25 51t55 14t55 -17t25 -42q0 -40 -25 -55t-55 -12t-55 20 t-25 41z" />
<glyph unicode="&#x26;" horiz-adv-x="690" d="M40 281q6 71 29 140t57 130t70 99q-56 80 -87 173t-28 176t46 141t135 68q64 6 104 -18t59 -68t19 -103t-15 -122t-42 -126t-61 -113l170 -288q4 6 11 40t22 71t41 63t68 16q-8 -72 -16 -122t-17 -84t-17 -57t-14 -43q18 -26 43 -60t40 -70t10 -70t-49 -60q-14 12 -29 34 t-30 46t-30 47t-27 35q-20 -30 -48 -56t-59 -46t-65 -32t-66 -10q-90 4 -140 43t-70 97t-14 129zM150 285q-4 -65 19 -111t79 -54q22 -4 48 5t52 27t48 44t36 56q-50 90 -83 147t-54 91t-25 40l-14 20q-46 -58 -74 -129t-32 -136zM199 914q11 -64 63 -150q42 58 60 120 t18 112t-17 82t-43 30q-22 -2 -46 -23t-35 -64t0 -107z" />
<glyph unicode="'" horiz-adv-x="280" d="M62 584q10 12 19 21t18 23t18 34t19 54q10 46 -7 69t-35 43t-25 47t21 83q50 -10 82 -40t49 -69t21 -80t-4 -73q-20 -84 -69 -114t-107 2z" />
<glyph unicode="(" horiz-adv-x="558" d="M43 568q1 134 32 261t92 237t151 184q40 32 74 40t60 2t41 -23t17 -35q-78 -32 -140 -100t-106 -157t-69 -193t-28 -209t17 -204t65 -180t117 -136t172 -71q-4 -28 -24 -46t-49 -26t-65 -3t-72 27q-96 56 -160 155t-95 221t-30 256z" />
<glyph unicode=")" horiz-adv-x="452" d="M-60 1232q4 26 24 45t49 27t65 2t72 -26q96 -56 160 -155t95 -221t30 -256t-32 -261t-92 -238t-151 -183q-40 -32 -74 -40t-60 -2t-41 23t-17 35q78 32 140 100t106 157t69 192t28 208t-17 205t-65 181t-117 136t-172 71z" />
<glyph unicode="*" horiz-adv-x="760" d="M41 637q3 19 16 37t34 30t47 12l120 -2l-110 178q8 18 26 26t39 6t42 -13t37 -33l76 -126l134 192q18 0 33 -13t21 -34t4 -45t-16 -46l-68 -94l254 -2q6 -62 -54 -94q-16 -8 -45 -13t-97 -3h-74l140 -228q-52 -38 -108 -4q-16 10 -35 32t-53 80l-44 70l-160 -226 q-58 32 -48 98q4 18 16 45t54 79l38 54l-212 2q-10 16 -7 35z" />
<glyph unicode="+" horiz-adv-x="786" d="M45 611q3 19 16 37t34 30t47 12l192 -2l4 292q62 6 94 -54q8 -16 13 -45t3 -97v-98l286 -2q6 -62 -54 -94q-16 -8 -45 -13t-97 -3h-92v-276q-16 -10 -35 -7t-37 16t-30 34t-12 47l2 186l-282 2q-10 16 -7 35z" />
<glyph unicode="," horiz-adv-x="312" d="M84 -186q10 12 19 21t18 23t18 34t19 54q10 46 -7 69t-35 43t-25 47t21 83q50 -10 82 -40t49 -69t21 -80t-4 -73q-20 -84 -69 -114t-107 2z" />
<glyph unicode="-" horiz-adv-x="766" d="M45 611q3 19 16 37t34 30t47 12l592 -6q6 -62 -54 -94q-16 -8 -45 -13t-97 -3l-486 2q-10 16 -7 35z" />
<glyph unicode="." horiz-adv-x="252" d="M60 74q0 36 25 51t55 14t55 -17t25 -42q0 -40 -25 -55t-55 -12t-55 20t-25 41z" />
<glyph unicode="/" horiz-adv-x="518" d="M19 62q-5 24 1 50l406 1100q30 -6 51 -28t25 -54q4 -20 -2 -49t-28 -93l-368 -998q-18 -4 -36 5t-31 26t-18 41z" />
<glyph unicode="0" horiz-adv-x="808" d="M12 526q-4 122 22 244t77 219t127 158t172 61t169 -56t120 -147t69 -207t18 -234q-4 -108 -30 -210t-76 -181t-122 -128t-168 -49t-166 44t-117 117t-70 169t-25 200zM136 542q0 -84 16 -163t47 -140t77 -99t110 -40q66 -2 114 36t81 103t50 150t21 175q2 98 -12 193 t-44 170t-77 119t-109 42q-66 -4 -118 -53t-87 -126t-53 -173t-16 -194z" />
<glyph unicode="1" horiz-adv-x="198" d="M28 1198q30 4 56 -10t42 -42q10 -16 15 -45t5 -97l16 -1000q-16 -10 -36 -7t-38 15t-31 33t-15 47z" />
<glyph unicode="2" horiz-adv-x="660" d="M33 84q-3 28 15 62q20 42 53 100t74 123t84 132t81 126t67 105t41 70q24 46 34 97t2 95t-36 72t-80 28q-46 0 -79 -23t-58 -57t-45 -71t-41 -66t-46 -42t-59 3q20 66 48 131t68 117t92 84t120 32q96 0 148 -54t67 -133t-5 -169t-72 -164q-12 -16 -39 -58t-62 -98 t-73 -120t-72 -122t-60 -106t-36 -72l454 6q0 -34 -27 -56t-70 -35t-96 -18t-108 -5t-105 1t-84 1q-22 -2 -44 8t-35 29t-16 47z" />
<glyph unicode="3" horiz-adv-x="706" d="M22 294q14 54 76 68q-2 -78 31 -134t84 -89t110 -42t111 8t86 60t34 115q0 42 -19 77t-49 66t-66 57t-72 48q-30 18 -49 45t-19 54t20 50t66 31q30 6 64 22t62 41t46 58t18 73q0 46 -17 82t-49 60t-74 34t-92 8q-34 -2 -61 -13t-51 -28t-47 -38t-47 -45q-28 48 -16 90 t46 73t80 50t86 21q60 4 124 -12t118 -53t88 -95t34 -136q0 -68 -28 -120t-69 -88t-85 -57t-74 -27q30 -14 75 -43t86 -71t68 -98t21 -122q-6 -84 -41 -141t-88 -90t-121 -45t-140 -2q-92 12 -156 66t-91 116t-13 116z" />
<glyph unicode="4" horiz-adv-x="654" d="M26 626l2 576q62 10 94 -52q10 -16 15 -45t5 -97l-10 -360h374l-6 554q62 10 94 -52q10 -16 15 -45t5 -97l16 -1000q-16 -10 -35 -7t-37 15t-30 33t-14 47l-6 446h-374q-14 0 -33 4t-35 13t-28 26t-12 41z" />
<glyph unicode="5" horiz-adv-x="664" d="M24 686q0 36 1 99t2 129t4 125t9 87q8 44 34 61t78 15h148t157 -10t123 -35t48 -75l-490 6l-8 -360q96 14 195 -11t176 -84t118 -150t21 -209q-26 -156 -130 -222t-250 -46q-92 12 -151 64t-80 113t-2 114t81 67q-2 -78 25 -134t70 -89t94 -42t98 7t82 59t45 115 q14 96 -20 165t-95 111t-143 56t-164 0q-34 -6 -55 17t-21 57z" />
<glyph unicode="6" horiz-adv-x="684" d="M11 369q-3 85 15 175q18 96 62 194t109 186t152 162t193 124q22 -40 14 -69t-35 -58t-70 -63t-92 -82t-99 -115t-92 -163q108 32 197 22t153 -49t102 -101t44 -132q8 -98 -25 -182t-97 -139t-150 -74t-182 15q-64 22 -107 72t-66 121t-26 156zM124 407q-4 -75 17 -144 t70 -118t133 -49q56 0 99 28t69 71t36 96t0 103q-14 68 -57 110t-100 58t-121 9t-120 -33q-22 -56 -26 -131z" />
<glyph unicode="7" d="M20 1167q-4 19 6 35h500q92 0 111 -40t1 -116l-212 -882q-16 -70 -45 -105t-56 -50t-47 -13t-18 8l282 1088h-424q-26 0 -47 11t-34 28t-17 36z" />
<glyph unicode="8" horiz-adv-x="660" d="M27 181q-15 85 33 199t174 244q-76 60 -125 137t-57 145q-10 92 28 156t101 99t140 44t141 -9t105 -62t35 -114q-4 -46 -25 -97t-50 -102t-61 -98t-58 -81q50 -36 97 -77t80 -89t47 -107t-2 -131q-34 -132 -123 -185t-205 -55q-116 0 -188 49t-87 134zM148 200 q12 -54 57 -79t93 -27q64 -4 126 36t88 128q12 48 1 87t-39 74t-67 67t-83 64q-116 -124 -152 -210t-24 -140zM172 932q0 -52 40 -112t100 -106q24 30 49 67t47 76t38 75t24 66q10 40 -9 64t-52 32t-74 1t-77 -27t-61 -55t-25 -81z" />
<glyph unicode="9" horiz-adv-x="652" d="M30 784q-12 82 11 164t83 140t158 83t234 -7q8 6 15 14t19 16t30 12t48 -2v-1204q-38 4 -61 21t-35 69t-14 152t2 270q-110 -32 -197 -20t-148 54t-98 105t-47 133zM150 784q8 -50 34 -92t71 -66t110 -25t149 33l2 412q-98 42 -171 30t-120 -56t-66 -109t-9 -127z" />
<glyph unicode=":" horiz-adv-x="328" d="M90 650q0 36 25 51t55 14t55 -18t25 -43q0 -38 -25 -53t-55 -12t-55 20t-25 41zM92 394q0 36 25 51t55 14t55 -18t25 -43q0 -38 -25 -53t-55 -12t-55 20t-25 41z" />
<glyph unicode=";" horiz-adv-x="310" d="M56 372q0 36 25 51t55 14t55 -18t25 -43q0 -38 -25 -53t-55 -12t-55 20t-25 41zM84 -186q10 12 19 21t18 23t18 34t19 54q10 46 -7 69t-35 43t-25 47t21 83q50 -10 82 -40t49 -69t21 -80t-4 -73q-20 -84 -69 -114t-107 2z" />
<glyph unicode="&#x3c;" horiz-adv-x="728" d="M57 557q3 19 15 36t28 21q62 22 138 53t152 61t143 56t109 38q22 -38 10 -74t-40 -48l-330 -140l308 -108q26 -6 43 -25t24 -41t6 -41t-13 -25q-44 8 -122 32t-162 51t-159 53t-113 38q-24 8 -32 26t-5 37z" />
<glyph unicode="=" horiz-adv-x="792" d="M49 457q3 19 16 37t34 30t47 12l592 -6q6 -62 -54 -94q-16 -8 -45 -13t-97 -3l-486 2q-10 16 -7 35zM61 657q3 19 16 37t34 30t47 12l592 -6q6 -62 -54 -94q-16 -8 -45 -13t-97 -3l-486 2q-10 16 -7 35z" />
<glyph unicode="&#x3e;" horiz-adv-x="676" d="M48 797q2 19 14 25q44 -10 122 -33t162 -50t159 -53t113 -38q24 -8 31 -26t4 -37t-14 -36t-27 -21q-62 -22 -138 -53t-152 -61t-143 -56t-109 -38q-22 38 -10 74t40 48l330 140l-308 108q-26 6 -43 25t-25 41t-6 41z" />
<glyph unicode="?" horiz-adv-x="680" d="M32 961q6 43 34 88t73 81t102 57t121 15q120 -10 194 -79t96 -199q20 -118 -15 -203t-97 -138t-139 -77t-141 -20l4 -252q-48 0 -72 20t-35 59t-11 95t2 126q0 34 25 55t59 17q62 -6 123 6t105 48t66 99t8 159q-10 70 -45 114t-82 60t-98 7t-94 -42t-70 -89t-25 -134 q-54 14 -74 49t-14 78zM148 58q0 36 25 51t55 14t55 -18t25 -43q0 -38 -25 -53t-55 -12t-55 20t-25 41z" />
<glyph unicode="@" horiz-adv-x="1088" d="M19 601q9 107 50 211t111 186t167 133t217 53q142 2 246 -56t167 -148t85 -199t3 -207t-81 -171t-166 -91q-20 -4 -40 3t-39 30t-34 62t-23 99q-22 -58 -56 -89t-72 -59q-60 -44 -120 -50t-109 16t-80 69t-36 110t23 138t100 153q58 64 147 110t185 56q64 0 100 -26 t36 -96q0 -76 -5 -154t-5 -140t9 -99t35 -33q32 6 57 34t43 68t26 86t6 88q-6 84 -38 156t-84 125t-122 81t-154 24q-96 -4 -173 -47t-133 -109t-88 -149t-39 -169t13 -168t69 -146t130 -104t195 -40q80 0 136 29t103 60t91 48t98 -7q-64 -106 -172 -172t-264 -68 q-144 0 -246 48t-164 128t-88 183t-17 210zM345 595q-13 -65 2 -112t59 -60t114 39q36 26 65 68t50 93t29 109t2 116q-84 -10 -150 -45t-112 -89t-59 -119z" />
<glyph unicode="A" horiz-adv-x="802" d="M32 38q32 118 62 249t64 266t75 271t95 268q24 58 54 83q28 23 57 23h5q38 -2 72 -46t54 -108q20 -70 48 -185t57 -253t59 -288t56 -294q-6 -1 -11 -1q-37 0 -63 35q-30 40 -53 104t-40 141t-33 145l-334 -4q-18 -74 -36 -149t-42 -134t-59 -94q-30 -30 -72 -30 q-7 0 -15 1zM278 570h278q-14 94 -29 179t-30 151t-29 107t-28 47h-2q-10 0 -23 -37q-15 -41 -36 -110t-46 -157t-55 -180z" />
<glyph unicode="B" horiz-adv-x="648" d="M26 1202q12 1 22 1q15 0 26 -2q18 -3 29 -14t17 -27t14 -36q114 66 201 68h8q81 0 135 -37q56 -39 81 -109q18 -50 18 -103q0 -21 -3 -42q-10 -75 -57 -144t-133 -109q74 -10 128 -48t86 -97t40 -133q2 -21 2 -43q0 -54 -14 -109q-24 -84 -84 -146t-166 -72 q-15 -1 -30 -1q-42 0 -87 8q-61 11 -119 53q0 -36 -32 -55q-18 -11 -41 -11q-17 0 -35 6zM130 512l10 -338q62 -50 119 -68q39 -12 75 -12q16 0 30 2q68 14 107 60t53 104q6 33 6 63q0 47 -15 88q-25 67 -80 104t-134 39h-7q-76 0 -164 -42zM136 656q54 2 114 29t110 69 t82 97q30 52 30 108v7q-4 66 -38 97t-83 33h-8q-46 0 -98 -21q-57 -23 -107 -63z" />
<glyph unicode="C" horiz-adv-x="706" d="M34 590q4 106 35 197t77 162t100 122t106 79q56 30 109 41q32 7 61 7q18 0 34 -3q42 -7 69 -31t27 -62h-10q-98 0 -182 -37q-88 -39 -153 -109t-102 -167t-41 -213q-1 -16 0 -32q0 -107 23 -192q27 -98 90 -160t165 -83q44 -9 96 -9q70 0 154 16q-8 -54 -65 -83t-153 -33 q-13 -1 -26 -1q-101 0 -177 42q-85 47 -140 128t-79 191q-19 88 -19 182q0 24 1 48z" />
<glyph unicode="D" horiz-adv-x="770" d="M6 12q10 32 30 59t68 31l-6 1010q-12 2 -26 5t-25 11t-19 24t-8 44q72 7 137 7q119 0 210 -24q141 -37 228 -115t124 -187q35 -103 35 -222v-13q-4 -174 -63 -301t-161 -207t-237 -111q-82 -19 -170 -19q-57 0 -117 8zM218 948q0 -64 1 -173t1 -271v-388q92 0 168 46 t132 120t87 167t31 189q0 80 -23 162t-73 148t-130 109t-190 43q-2 0 -3 -10t-1 -44v-98z" />
<glyph unicode="E" horiz-adv-x="788" d="M34 1086q0 54 34 85t92 31h590q8 -16 5 -35t-16 -36t-34 -29t-47 -12l-514 2q0 -6 1 -18t1 -51t1 -115t3 -210h444q8 -16 4 -34t-17 -34t-35 -26t-48 -10l-346 -6l8 -472l604 -4q5 -11 5 -22q0 -6 -1 -12q-4 -18 -17 -34t-35 -26t-48 -10l-506 -4q-42 0 -79 18t-37 70z " />
<glyph unicode="F" horiz-adv-x="764" d="M34 1086q0 54 34 85t92 31h590q6 -12 6 -25q0 -5 -1 -10q-3 -19 -16 -36t-34 -29t-47 -12l-514 2q0 -6 1 -18t1 -51t1 -115t3 -210h444q8 -16 4 -34t-17 -34t-35 -26t-48 -10l-346 -6l-2 -584q0 -3 -5 -3q-4 0 -11 2q-16 5 -36 27t-37 65t-17 113z" />
<glyph unicode="G" horiz-adv-x="788" d="M28 434q-2 33 -2 65q0 107 25 211q33 136 99 243t157 176t199 79q17 1 32 1q68 0 113 -28q55 -35 59 -111q-46 10 -93 23q-29 8 -62 8q-21 0 -43 -3q-98 -12 -171 -88t-120 -178t-65 -212q-12 -71 -12 -131q0 -33 4 -63q18 -136 83 -221t183 -85q88 0 139 41t76 106 t31 144t6 155h-28q-60 0 -97 7q-45 9 -69 24t-32 35t-10 40l234 8h7q35 0 55 -20q22 -22 32 -56t12 -74t2 -76q0 -78 -20 -158t-64 -145t-111 -106t-163 -41q-72 0 -139 26t-119 79t-86 134t-42 191z" />
<glyph unicode="H" horiz-adv-x="672" d="M32 1198q9 1 17 1q50 0 77 -53q10 -16 15 -45t5 -97l6 -356h374l-6 554q9 1 17 1q50 0 77 -53q10 -16 15 -45t5 -97l16 -1000q-16 -10 -35 -7t-37 15t-30 33t-14 47l-6 446h-374l8 -538q-12 -8 -26 -8q-4 0 -9 1q-19 3 -37 15t-30 33t-14 47z" />
<glyph unicode="I" horiz-adv-x="188" d="M28 1198q7 1 13 1q23 0 43 -11q26 -14 42 -42q10 -16 15 -45t5 -97l16 -1000q-12 -8 -27 -8q-4 0 -9 1q-20 3 -38 15t-31 33t-15 47z" />
<glyph unicode="J" horiz-adv-x="724" d="M38 314q23 7 41 7q13 0 24 -4q25 -9 42 -31t30 -50t31 -54t45 -46t71 -22q8 -1 16 -1q114 0 178 140q64 141 64 416v33v81q0 116 4 190q6 99 20 148t37 63t55 14l2 -478q0 -210 -27 -349t-78 -222t-122 -117t-155 -34q-60 0 -107 27t-82 72t-58 101t-31 116z" />
<glyph unicode="K" horiz-adv-x="628" d="M24 1212h5q44 0 68 -33q25 -35 35 -95t11 -137t1 -159q38 28 92 79t113 111t119 122t108 112q28 -29 28 -67q0 -21 -9 -45q-25 -66 -88 -139t-146 -148t-153 -141q44 -64 98 -130l108 -132t101 -128t77 -117t35 -103q1 -7 1 -14q0 -39 -24 -68l-458 570q-2 -27 -2 -59 q0 -24 1 -49q3 -60 5 -123q1 -32 1 -62.5t-1 -59.5q-2 -59 -13 -106t-36 -74q-23 -25 -61 -25h-6q-4 296 -6 593t-4 627z" />
<glyph unicode="L" horiz-adv-x="614" d="M22 78q4 106 6 248t3 295q0 76 0.5 152t-0.5 151q-1 150 -5 274h11q25 0 44 -7q23 -9 38 -47t23 -110t11 -192q2 -60 2 -134t-2 -163q-3 -177 -9 -425q16 -1 40 -1h27q43 1 93 1t101 -4t93 -16t69 -34t27 -56q-28 -6 -91 -7t-134 -1t-135 1t-94 1q-20 0 -41 3t-38 11 t-28 23t-11 37z" />
<glyph unicode="M" horiz-adv-x="972" d="M24 0l28 1116q8 40 24 59t35 21t39 -9t36 -31l302 -500q4 10 20 45t38 82t47 100t47 99t38 81t22 45q22 46 53 68t60 24h5q26 0 45 -17q21 -19 23 -55l58 -1140q-38 4 -63 21t-41 59t-25 115t-14 188t-9 277t-8 382l-210 -466q-42 -54 -90 -59h-8q-44 0 -84 53l-226 394 q-4 -204 -4 -381t-10 -305t-38 -200q-26 -66 -81 -66h-9z" />
<glyph unicode="N" horiz-adv-x="850" d="M24 0l28 1116q8 40 24 59t35 21t39 -9t36 -31l520 -996q-2 274 -6 468q-1 60 -1 113q0 120 6 207q9 126 35 188t84 72v-1140q0 -28 -23 -46t-55 -23q-11 -2 -23 -2q-21 0 -43 6q-34 9 -56 39l-458 910q-4 -204 -4 -381t-10 -305t-38 -200q-26 -66 -81 -66h-9z" />
<glyph unicode="O" horiz-adv-x="786" d="M12 526q-1 16 -1 33q0 106 23 211q26 122 77 219t127 158t172 61t169 -56t120 -147t69 -207q19 -98 18 -198v-36q-4 -108 -30 -210t-76 -181t-122 -128t-168 -49t-166 44t-117 117t-70 169t-25 200zM136 542q0 -84 16 -163t47 -140t77 -99t110 -40h6q62 0 110 37 q50 39 86 104t55 150t23 175v22q0 87 -14 171q-16 95 -49 169t-82 118q-47 42 -106 42h-5q-66 -4 -118 -53t-87 -126t-53 -173q-16 -86 -17 -174q1 -10 1 -20z" />
<glyph unicode="P" horiz-adv-x="638" d="M20 0v1204q18 4 32 4q9 0 16 -2q18 -4 30 -12t19 -16t15 -14q50 6 114 6h33q85 -2 162 -27t131 -79t54 -150q0 -88 -37 -160t-104 -124t-159 -82t-198 -36q3 -113 3 -196q0 -41 -1 -74q-2 -100 -14 -152t-35 -69t-61 -21zM132 1046l2 -412h14q78 0 143 21q71 23 121 62 t76 90q24 47 24 99v8q-4 62 -47 98t-102 49q-43 9 -88 9q-17 0 -35 -1q-64 -5 -108 -23z" />
<glyph unicode="Q" horiz-adv-x="822" d="M12 526q-1 16 -1 33q0 105 23 211q26 122 77 219t127 158t172 61t169 -56t120 -147t69 -207q19 -98 19 -198q0 -18 -1 -36q-4 -108 -30 -209t-74 -179l122 -160q-6 -18 -24 -28t-40 -11h-4q-20 0 -41 8q-23 9 -39 29l-52 66q-90 -82 -214 -84q-96 0 -166 44t-117 117 t-70 169t-25 200zM136 542q0 -84 16 -163t47 -140t77 -99t110 -40h5q85 0 145 72l-186 248q30 22 59 21t56 -16t51 -40t44 -51l40 -52q24 60 36 133t16 149v24q0 86 -12 169q-14 95 -44 170t-77 119q-45 42 -104 42h-5q-66 -4 -118 -53t-87 -126t-53 -173q-16 -86 -16 -174 v-20z" />
<glyph unicode="R" horiz-adv-x="716" d="M28 4q0 32 1 121t4 208t6 254t6 258t5 220t2 143h8q27 0 47 -11q23 -13 37 -36t17 -51t-3 -56q44 58 104 95t120 49q36 7 69 7q36 0 69 -8q64 -15 108 -53t65 -94q15 -41 16 -86q0 -17 -3 -36q-12 -90 -63 -155t-119 -107t-144 -60q-68 -16 -125 -16h-13l478 -580 q-20 -8 -42 -8q-25 0 -53 11q-51 21 -104 67t-105 109t-101 127t-90 122t-71 94q-4 -194 -13 -301t-24 -158t-37 -60t-52 -9zM154 700q31 -5 84 -5h18q66 1 134 21t127 67t81 135q6 21 6 42q0 17 -4 34q-8 38 -33 66t-66 41q-21 7 -46 7q-23 0 -49 -6q-58 -12 -106 -50 t-82 -93t-52 -122q-14 -50 -14 -102q0 -17 2 -35z" />
<glyph unicode="S" horiz-adv-x="696" d="M19 296q17 52 79 66v-10q0 -72 27 -124q29 -56 74 -88t101 -41q19 -3 38 -3q35 0 69 11q51 17 91 60t56 113q4 22 4 42q0 46 -22 81q-32 51 -90 93t-129 80t-132 83t-100 103q-34 50 -34 117q0 10 1 21q6 78 41 136t87 95t114 53q50 13 98 13q12 0 24 -1q40 -2 86 -21 t80 -50t46 -73q4 -13 4 -26q0 -31 -20 -64q-24 24 -47 45t-47 38t-51 28t-61 13q-11 1 -21 1q-85 0 -137 -44q-58 -49 -74 -141q-2 -12 -2 -23q0 -42 30 -75q38 -42 99 -80t132 -77t130 -90t92 -119q22 -46 22 -104q0 -28 -5 -60q-14 -82 -53 -138t-94 -89t-123 -45 q-51 -9 -105 -9q-18 0 -37 1q-90 18 -150 73t-84 116q-14 36 -14 68q0 23 7 45z" />
<glyph unicode="T" horiz-adv-x="686" d="M12 1190h658l1 -40q0 -19 -21 -35q-22 -17 -78 -27t-170 -10q4 -264 4 -447t-5 -304t-14 -188t-23 -97t-32 -34q-7 -2 -15 -2q-12 0 -27 4l-4 1068q-36 2 -84 3t-90 10t-71 32t-29 67z" />
<glyph unicode="U" horiz-adv-x="708" d="M30 683q2 99 4 177q2 104 14 170t31 104t47 50q20 9 46 9q8 0 18 -1q-8 -68 -18 -178t-15 -233q-2 -62 -2.5 -123.5t2.5 -122.5q5 -123 26 -219t63 -151q33 -44 85 -44q13 0 27 3q28 6 57 20t55 34t48 41t36 39l18 938q12 8 26 8q4 0 9 -1q19 -3 37 -15t30 -33t14 -47 l-14 -1118q-10 -2 -19 -2q-34 0 -56 24q-27 30 -37 88q-48 -34 -90 -60t-100 -38q-34 -7 -64 -7q-52 0 -92 22q-62 35 -101 104t-56 164t-24 197q-5 79 -5 157v44z" />
<glyph unicode="V" horiz-adv-x="758" d="M6 1182q25 16 50 16q12 0 24 -4q36 -12 50 -40l282 -926l202 878q6 26 25 47t41 32t40 11t18 -16q-6 -28 -25 -117t-45 -208t-55 -251t-56 -249t-48 -204t-29 -111t-26 -32q-13 -6 -27 -6q-5 0 -10 1q-19 3 -36 15t-21 28q-16 40 -46 133t-66 210t-75 245t-73 241 t-60 196t-34 111z" />
<glyph unicode="W" horiz-adv-x="948" d="M18 1210q66 -4 87 -43t35 -103q2 -12 11 -74t22 -149t26 -187t25 -188t20 -150t8 -74q14 24 37 79t49 111t50 100t42 48q24 6 46 -29t46 -94t51 -134t59 -149q16 78 35 171t37 189t35 188t32 169t26 132t19 77q22 64 49 84t67 20q-18 -120 -40 -245t-44 -244t-44 -227 t-40 -195t-30 -148t-14 -83q-4 -28 -20 -44t-37 -20q-8 -1 -15 -1q-13 0 -26 4q-20 7 -32 25q-16 24 -35 76t-39 110t-40 110t-36 80q-18 -40 -41 -93l-46 -106t-42 -99t-29 -70t-30 -32q-13 -5 -27 -5l-13 1q-20 4 -36 17t-18 31q-4 48 -14 131t-24 188t-30 222t-31 231 t-26 216t-15 176z" />
<glyph unicode="X" horiz-adv-x="838" d="M16 32l336 646l-278 518q26 17 55 17q18 0 37 -6q50 -17 76 -57l180 -352l184 330q56 88 115 88q26 0 53 -18l-286 -520l338 -654q-10 -16 -32 -23q-15 -5 -32 -5q-7 0 -15 1q-25 3 -48 16t-35 37l-244 506l-244 -498q-12 -24 -34 -37t-47 -16t-47 4t-32 23z" />
<glyph unicode="Y" horiz-adv-x="836" d="M18 1172q35 22 75 22h7q44 -2 70 -36l308 -432l196 408q8 24 27 39t41 22q19 6 37 6h5q20 -1 30 -9q-6 -30 -25 -79t-46 -110t-58 -126t-59 -124t-50 -108t-32 -75q0 -6 1 -21t1 -70t1 -166t5 -309q-12 -8 -27 -8q-4 0 -9 1q-20 3 -39 15t-32 33t-15 47q-2 182 -5 281 t-6 144t-5 53t-2 10z" />
<glyph unicode="Z" horiz-adv-x="744" d="M23 76q-1 6 -1 12q0 32 30 76l518 926q-76 -4 -170 -5h-19q-84 0 -158 8q-83 9 -139 34t-56 73h620q22 0 39 -12t25 -32t6 -43t-18 -43l-542 -958l582 8q1 -5 1 -9q0 -28 -23 -47q-26 -22 -72 -34t-108 -17t-129 -7q-45 -1 -90 -1h-45q-68 1 -126 1q-48 0 -80 16 q-38 18 -45 54z" />
<glyph unicode="[" horiz-adv-x="468" d="M42 1218q0 54 34 85t92 31l280 6q8 -16 5 -35t-16 -36t-34 -29t-47 -12l-204 -4q0 -6 -1 -71t-1 -212t1 -386t7 -591l288 2q8 -40 -25 -72t-81 -36l-180 -2q-42 0 -79 18t-37 70z" />
<glyph unicode="\" horiz-adv-x="518" d="M18 1130q4 32 25 54t51 28l406 -1100q6 -26 1 -50t-18 -41t-31 -26t-36 -5l-368 998q-22 64 -28 93t-2 49z" />
<glyph unicode="]" horiz-adv-x="476" d="M28 1305q-4 19 6 35l280 -6q58 0 92 -31t34 -85l-2 -1274q0 -52 -37 -70t-79 -18l-180 2q-24 2 -45 12t-36 24t-22 33t-3 39l288 -2q6 352 7 591t1 386t-1 212t-1 71l-204 4q-26 0 -47 12t-34 29t-17 36z" />
<glyph unicode="^" horiz-adv-x="528" d="M58 500l138 266q14 24 35 33t42 8t38 -11t27 -26l144 -280q-10 -8 -29 -14t-40 -7t-40 5t-29 22l-74 136l-70 -128q-12 -18 -33 -25t-43 -6t-41 8t-25 19z" />
<glyph unicode="_" horiz-adv-x="744" d="M23 43q3 19 16 37t34 30t47 12l592 -6q6 -62 -54 -94q-16 -8 -45 -13t-97 -3l-486 2q-10 16 -7 35z" />
<glyph unicode="`" horiz-adv-x="312" d="M52 1084q44 26 83 13t67 -63l80 -176q-8 -8 -23 -13t-33 -6t-35 4t-25 19z" />
<glyph unicode="a" horiz-adv-x="692" d="M27 271q7 83 49 176t122 181q58 64 147 110t185 56q64 0 100 -26t36 -96v-167t-2 -181t-4 -182t-6 -170q-18 2 -42 9t-43 37t-27 91q-3 24 -3 56q0 48 7 113q-26 -66 -73 -125t-105 -97t-120 -49q-17 -3 -33 -3q-44 0 -85 22q-58 32 -84 97q-20 51 -20 114q0 16 1 34z M145 285q-4 -26 -3 -49q0 -33 7 -60q13 -46 53 -54q13 -3 25 -3l99 44q62 55 111 144t76 192q21 79 21 145q0 19 -2 38q-84 -10 -149 -46t-113 -88q-52 -58 -84 -129t-41 -134z" />
<glyph unicode="b" horiz-adv-x="708" d="M-588 2090q32 20 57 20t46 -14t39 -36t36 -46q24 -28 59 -62t89 -62t129 -44q50 -11 112 -10q31 0 65 2l8 226q8 204 69 294q58 86 154 86h9q44 -2 85 -23t74 -59t53 -92t20 -120q0 -100 -30 -175t-80 -128t-114 -84t-130 -41l2 -1074q38 26 84 53t97 41q38 10 76 11 q14 0 28 -2q53 -5 105 -43q70 -52 99 -128q25 -67 26 -138q0 -10 -1 -20q-4 -82 -37 -163t-89 -143t-130 -98q-63 -31 -134 -31q-12 0 -24 1q-12 0 -48 5t-74 15t-68 27t-30 41l4 1646q-35 -6 -76 -6q-37 0 -79 5q-87 11 -175 52t-169 118t-137 199zM156 1850q56 0 103 24 t81 65t52 93t18 106q0 38 -11 72t-28 59t-39 39t-44 16h-6q-41 0 -79 -53q-41 -57 -43 -195zM162 120q52 -27 103 -27q17 0 33 3q66 12 120 55t92 108t51 132q6 30 6 59q0 36 -9 71q-16 63 -70 101q-27 21 -70 21q-7 0 -14 -1q-52 -4 -103 -27t-90 -63t-47 -88z" />
<glyph unicode="c" horiz-adv-x="628" d="M30 308v23q0 87 26 161q30 84 85 147t134 104t175 53q12 1 24 1q20 0 39 -4q29 -7 49 -22t28 -36q4 -10 4 -22t-4 -25q-19 1 -38 1q-69 0 -133 -17q-81 -22 -142 -71t-94 -124q-25 -58 -25 -131q0 -22 2 -46q6 -76 45 -120t98 -61q44 -13 94 -13q18 0 36 2q71 6 143 32 q12 -28 1 -54t-34 -46t-55 -32t-62 -12q-60 0 -128 11t-127 45t-98 95t-43 161z" />
<glyph unicode="d" horiz-adv-x="750" d="M41 398q15 98 55 174q28 50 67 93t88 72t108 42q33 7 70 8q28 0 59 -5q-14 74 -39 185t-50 242t-47 275t-34 283q-8 98 -8 189q0 38 1 75q5 125 34 219t85 149t150 55q78 0 123 -64t65 -171q18 -97 18 -219v-25q-2 -137 -16 -285t-36 -297t-45 -276t-43 -222t-28 -137 q6 -78 24 -165t36 -172t32 -163t16 -137v-14q0 -49 -13 -79q-14 -32 -52 -32h-5l-86 430q-18 -72 -46 -146t-67 -135t-92 -100t-119 -41h-6q-84 0 -132 59q-50 61 -66 149q-8 45 -8 94q0 45 7 92zM150 253q6 -59 30 -99q23 -38 62 -38h4q36 2 68 34t59 83t48 114t36 124 t23 116t8 89q-26 7 -51 7q-21 0 -40 -5q-43 -10 -81 -35t-70 -63t-54 -82q-26 -52 -37 -119q-7 -43 -7 -83q0 -22 2 -43zM441 1898q3 -134 19 -283t41 -306t59 -303q10 46 25 129t30 186t28 219t20 230t7 218t-11 184t-36 128t-67 48q-44 0 -71 -58t-37 -158q-8 -77 -7 -174 q-1 -29 0 -60z" />
<glyph unicode="e" horiz-adv-x="662" d="M20 430q16 170 97 268t237 98q42 0 88 -12t85 -37t65 -64t26 -95q-2 -64 -29 -107t-69 -69t-94 -38t-105 -12t-100 10t-79 28v-15q0 -48 11 -93q13 -52 42 -91t74 -62t105 -23q26 0 60 10t69 24t67 31t54 31q5 -17 5 -33q0 -14 -4 -28q-9 -29 -28 -52t-46 -41t-51 -28 q-38 -16 -76 -24t-68 -8q-50 0 -109 19t-110 68t-85 132q-32 78 -32 199v14zM152 508q38 -14 92 -22q33 -5 66 -5q21 0 41 2q53 5 95 29t54 76q0 28 -15 47t-38 30t-51 16t-52 5q-70 0 -120 -54t-72 -124z" />
<glyph unicode="f" horiz-adv-x="574" d="M0 910h232q2 103 2 201q0 122 -3 236q-5 205 -7 377q-1 49 -1 95q0 116 4 213q5 136 30 230t75 143q48 47 129 47h7q64 0 104 -48t63 -123t31 -170t8 -189t-7 -179t-13 -141q-20 0 -39 10t-34 36t-22 72q-4 25 -4 58q0 28 3 62q0 6 3 44t4 90v26q0 41 -2 85 q-3 59 -14 108t-32 81t-57 32q-58 -4 -80 -82t-26 -244q-2 -83 -2 -190.5t2 -239.5t2 -292t-2 -348h190q16 0 30 -16t22 -36t7 -37t-17 -19h-232l4 -796q-12 -3 -23 -3q-22 0 -38 12q-23 17 -36 44t-18 58t-7 53l-4 632h-174q-24 -2 -41 11t-25 31q-7 16 -7 33q0 22 15 33z " />
<glyph unicode="g" horiz-adv-x="734" d="M-952 -1218q0 172 72 312t192 245t276 176t324 106t336 35t312 -36q4 150 4 292t6 300q-54 -90 -139 -150t-193 -60q-54 0 -93 20t-63 54t-35 80t-11 98q0 102 37 201t103 176t157 124t199 47q56 0 89 -9t50 -29t22 -51t5 -73q0 -100 -3 -202t-8 -224t-8 -274t-3 -350 q18 -10 47 -30t63 -49t71 -66t71 -83q24 -32 43 -69t34 -72t26 -67t15 -54q-13 -4 -25 -4q-20 0 -37 10q-28 16 -53 46t-48 67t-43 71q-16 24 -38 50t-45 49t-44 40t-35 21q0 -158 -33 -313t-97 -296t-156 -261t-210 -209t-260 -139t-304 -50q-130 0 -235 51t-180 135 t-115 192t-40 222zM-836 -1246q4 -114 45 -199t103 -141t135 -85t143 -31q17 -1 35 -1q134 0 250 42q131 47 239 132t190 203t138 252t85 279t29 287q-124 46 -277 52q-26 1 -53 1q-127 0 -257 -24q-157 -29 -304 -94t-261 -162t-180 -226q-60 -118 -60 -259v-26zM142 232 q0 -46 25 -88t75 -42q58 0 106 31t87 81t69 113t50 129t30 127t10 109q-27 4 -54 4q-59 0 -115 -21q-81 -31 -144 -94t-101 -154t-38 -195z" />
<glyph unicode="h" horiz-adv-x="680" d="M-68 1158q20 2 43 8t46 15t43 19l32 16q6 254 25 442t47 321t62 219t74 137t82 71t86 24q11 1 22 1q56 0 94 -27q46 -32 69 -89t25 -135v-20q0 -69 -12 -144q-12 -76 -40 -163t-65 -175t-81 -172t-90 -155t-91 -124t-83 -79l-10 -448q30 34 54 56t47 35t47 19t54 6h6 q70 0 113 -49q45 -51 69 -131t32 -179q7 -88 7 -170v-21q-1 -92 -6 -167t-7 -107q-42 0 -63 31t-29 82t-8 116v135q0 64 -6 126t-20 111t-40 79t-68 32h-4q-36 0 -65 -35q-31 -37 -54 -88t-37 -104t-16 -85q-4 -70 -9 -144t-18 -131t-39 -89q-19 -23 -47 -23q-11 0 -23 3 l14 1092q-6 -8 -34 -17t-58 -7t-53 19q-18 13 -18 45q0 8 1 18zM212 1300q44 40 97 126t102 191t87 217t54 206q10 60 10 109.5t-10 88.5q-19 72 -79 72h-9q-38 -4 -69 -52t-56 -123t-45 -169t-34 -190t-23 -187t-15 -159t-8 -104l-2 -28v2z" />
<glyph unicode="i" horiz-adv-x="182" d="M22 984q0 32 22 45q20 12 44 12h4q26 -1 48 -16t22 -37q0 -34 -22 -47t-48 -11t-48 17t-22 37zM42 816q9 1 17 1q50 0 77 -53q10 -16 15 -45t5 -97l6 -618q-12 -8 -26 -8q-4 0 -9 1q-19 3 -37 15t-30 33t-14 47z" />
<glyph unicode="j" horiz-adv-x="260" d="M-1152 -1404q-1 22 -1 44q0 84 18 169q23 107 73 203q76 146 199 282t274 247t321 190t342 111l12 820q0 44 14 73t31 44t33 18t24 -7v-948q54 0 98 -13t73 -36t38 -54q4 -12 4 -25q0 -20 -9 -42q-56 28 -102 39q-34 8 -70 8q-13 0 -26 -1q-8 -312 -51 -555t-109 -427 t-149 -312t-171 -208t-176 -117t-162 -37q-128 0 -224 43t-161 117t-101 171t-42 203zM-1023 -1394q5 -90 33 -171t78 -140t122 -89q54 -22 120 -22q22 0 46 2q70 8 147 46t152 113t143 192t122 285t89 390t45 508q-152 -34 -307 -109t-293 -177t-249 -224t-177 -250 q-40 -82 -58 -173q-14 -71 -14 -142q0 -19 1 -39zM72 914q0 32 22 45q20 12 44 12h4q26 -1 48 -16t22 -37q0 -34 -22 -47q-19 -11 -41 -11h-7q-26 2 -48 17t-22 37z" />
<glyph unicode="k" d="M-100 1172q34 2 77 18t71 30v8q-15 270 -15 470q0 70 2 131q7 237 41 376t97 193q61 52 147 52h6q104 -4 158 -85t67 -206q5 -45 5 -94q0 -86 -15 -183q-23 -152 -75 -297t-127 -267t-165 -184l6 -434q32 62 90 105t122 60q38 10 73 10q25 0 48 -5q57 -12 85 -60 q26 -42 26 -84q0 -16 -4 -33q-14 -59 -55 -111t-99 -96t-112 -74q18 -22 53 -53t75 -67t77 -74t60 -76q24 -40 24 -75q0 -34 -31 -61l-354 346q-14 28 -22 49t-4 37q2 14 26 32t58 40t72 47t70 53t50 58t14 60q-8 49 -55 49h-2q-49 -1 -106 -42t-106 -114t-59 -163 q-6 -62 -6 -128v-33v-41q0 -59 -4 -109q-6 -67 -32 -107q-23 -35 -72 -35q-7 0 -16 1l-14 1098q-16 -8 -43 -13t-52 0t-42 23q-14 15 -14 44q0 6 1 14zM152 1852l2 -582q64 46 117 144t91 217t57 245q17 114 17 208v20q-2 102 -30 167q-26 61 -78 61h-6q-44 -2 -73 -31 t-48 -73t-29 -98t-14 -106t-5 -98t-1 -74z" />
<glyph unicode="l" horiz-adv-x="700" d="M-48 -202q32 92 110 230t164 340q-40 110 -74 258t-59 316t-39 346q-12 147 -12 286q0 30 1 60q3 168 25 318t68 262t118 177q70 63 170 63h6q82 -2 132 -66t74 -174t24 -256t-16 -311t-47 -341t-69 -345t-81 -321t-85 -272q36 -100 71 -182t72 -159t75 -152t78 -161 q-24 -6 -46 -6q-13 0 -25 2q-33 6 -72 56t-93 158t-134 302q-20 -46 -45 -103t-52 -111t-57 -103t-61 -81t-62 -42t-59 12zM178 1401q6 -199 35 -415t87 -430q66 214 114 427t76 408t37 363q5 89 5 166q0 68 -4 126q-8 124 -36 198t-72 80q-6 1 -12 1q-49 0 -91 -62 q-47 -69 -80 -194t-49 -297q-12 -125 -12 -264q0 -53 2 -107z" />
<glyph unicode="m" horiz-adv-x="860" d="M28 -4l8 828q11 1 21 1q31 0 52 -14q27 -19 37 -59q42 26 89 34q18 3 35 3q28 0 55 -8q43 -13 78 -49t53 -96q12 22 29 49t39 49t50 37t62 15q36 -2 65 -9t53 -31t42 -74t28 -137t13 -219q1 -57 1 -124q0 -90 -2 -198q-6 -2 -12 -2q-9 0 -20 4q-18 6 -34 24t-29 47 t-15 73q-3 61 -3 132v37v31q0 76 -4 143q-5 81 -22 133q-16 48 -51 48h-6q-38 -4 -62 -37t-39 -82t-22 -110t-11 -120t-6 -111t-4 -84q-4 -34 -19 -55t-32 -33t-33 -14t-24 6q-1 31 -1 66q0 53 2 114q1 44 1 86q0 57 -2 111q-4 95 -21 166t-59 89q-24 12 -51 10t-50 -15 t-39 -33t-20 -42q0 -142 -1 -261t-11 -183q-12 -76 -38 -107q-24 -29 -65 -29h-5z" />
<glyph unicode="n" horiz-adv-x="628" d="M18 816q10 2 19 2q34 0 56 -24q27 -30 37 -88q32 30 81 54t103 33q23 4 46 3q30 0 60 -6q52 -12 92 -52q36 -36 57 -95t32 -129t12 -144v-49q0 -48 -1 -93q-2 -24 -4 -51t-7 -54t-13 -51t-20 -38q-28 -34 -80 -34q6 148 6 254t-4 180t-14 121t-24 75q-24 44 -69 53 q-17 3 -34 3q-29 0 -59 -9q-48 -15 -91 -48t-61 -71v-554q-12 -8 -26 -8q-4 0 -9 1q-19 3 -37 15t-30 33t-14 47z" />
<glyph unicode="o" d="M28 360q0 80 21 160t61 143t99 102q56 37 128 37h7q76 -2 131 -37t89 -92t48 -130q11 -57 11 -114q0 -16 -1 -33q-4 -74 -27 -144t-63 -125t-96 -90t-128 -37h-9q-66 0 -116 27q-53 29 -88 80t-51 117t-16 136zM142 354q0 -46 9 -89t29 -76t52 -54t74 -21h6q40 0 74 23 q36 25 62 66t42 94t20 107q1 17 1 35q0 34 -5 68q-8 51 -28 91t-54 65t-82 25q-42 0 -78 -31t-63 -79t-42 -107t-17 -117z" />
<glyph unicode="p" horiz-adv-x="606" d="M-821 -1330q5 112 31 217t70 187q60 112 147 207t190 166t217 116t226 57q1 54 1 109q0 83 -2 171q-3 146 -9 297t-15 304t-21 299q9 1 17 1q40 0 66 -33q31 -40 39 -108q10 16 33 41t55 49t70 40q34 14 71 14h9q58 -4 101 -41t69 -94t36 -127q6 -39 6 -77q0 -30 -4 -59 q-10 -82 -43 -156t-87 -127t-124 -78q-41 -15 -85 -15q-33 0 -67 8l8 -416q62 -6 135 -29t133 -57t97 -77q29 -34 29 -71q0 -10 -2 -20q-20 10 -57 31t-86 42t-111 38t-134 19q1 -61 1 -123q0 -109 -4 -220q-7 -175 -30 -338t-66 -307t-108 -250t-158 -165q-82 -52 -186 -52 q-14 0 -29 1q-124 6 -208 63t-134 144t-71 197q-17 89 -17 179q0 21 1 43zM-685 -1310q-3 -35 -3 -71q0 -60 8 -120q12 -95 47 -171t98 -123q60 -45 151 -45h8q106 2 180 70t125 178t79 251t43 289t17 290q1 71 1 135t-1 121q-102 -8 -199 -43t-184 -95t-161 -145t-128 -191 q-30 -60 -52 -147t-29 -183zM162 506l10 -344q39 -16 74 -16q18 0 36 5q50 13 88 49t63 92t35 120q4 31 4 63q0 16 -1 32q-3 49 -17 89t-38 65t-58 25q-30 0 -61 -18t-57 -45t-46 -59t-32 -58z" />
<glyph unicode="q" horiz-adv-x="744" d="M21 259q5 71 30 145t66 145t95 129q64 68 138 110q68 38 142 38h14q46 0 92 -11t74 -43q26 -28 37 -60t11 -74t-7 -97t-17 -133q-8 -60 -15 -145t-13 -182t-11 -200t-9 -196t-7 -171t-5 -126q92 32 195 45q54 7 106 7q48 0 95 -6q98 -12 188 -51t158 -109t108 -173 t40 -243q0 -76 -12 -164t-37 -175t-66 -168t-99 -144t-134 -103t-172 -42h-17q-119 0 -200 51q-87 55 -142 148t-82 214t-38 248t-13 250t-4 221q-86 -46 -143 -62q-54 -15 -89 -15h-4q-36 1 -55 15t-25 26q48 32 87 56t76 44t75 39t80 45l44 842q-32 -44 -66 -80t-73 -62 t-86 -38q-35 -9 -77 -9q-14 0 -28 1q-78 6 -124 43t-66 93q-16 45 -16 99q0 14 1 28zM139 299q-5 -29 -5 -54q0 -40 12 -72q20 -53 80 -61q16 -2 30 -2q74 0 131 49q69 59 116 152t73 198t34 183q-51 25 -100 25q-36 0 -71 -13q-83 -32 -149 -106q-58 -64 -98 -145t-53 -154 zM638 -744q0 -82 1 -194t10 -232t29 -237t60 -209t103 -149q61 -55 151 -55h6q118 2 196 70t125 169t66 218q17 106 17 198v19q-2 130 -42 219t-103 144t-143 80t-164 26h-9q-79 0 -157 -17q-82 -18 -146 -50z" />
<glyph unicode="r" horiz-adv-x="524" d="M16 800q27 10 45 10q7 0 12 -1q21 -5 33 -23t20 -45t20 -57q52 40 115 72t125 32q42 0 82 -29t48 -69q-16 -4 -47 -6t-70 -8t-81 -20t-78 -46t-62 -84t-32 -132q-2 -20 -5 -75t-6 -117t-5 -118t-2 -76q-10 -5 -25 -5h-5q-18 1 -34 10t-29 23t-13 36z" />
<glyph unicode="s" horiz-adv-x="554" d="M18 236q13 1 25 1q37 0 56 -14q25 -19 43 -45t42 -50t78 -26q38 0 67 14t48 37t27 52t6 57q-6 56 -34 87t-67 50t-84 32t-84 33t-66 52t-33 88q-1 12 -1 23q0 36 14 67q19 40 52 67t77 42t90 17h17q26 0 56 -4q41 -6 75 -23t54 -46q13 -19 13 -45q0 -13 -3 -28 q-42 10 -91 25q-43 13 -97 13h-14q-22 0 -45 -8t-41 -21t-29 -31t-7 -36q2 -36 30 -58t68 -39t87 -34t88 -43t70 -67t35 -105q1 -14 1 -28q0 -44 -14 -82q-19 -50 -56 -86t-87 -58t-106 -24h-11q-51 0 -92 16q-45 18 -78 51t-53 78t-26 99z" />
<glyph unicode="t" horiz-adv-x="348" d="M-343 1170q7 44 40 90t87 93t114 89t122 84t112 68l16 868q32 0 53 -23t33 -61t18 -87t8 -99q1 -33 1 -66v-32q-1 -48 -1 -84v-338q48 30 110 79t120 102t103 99t63 70q26 -27 26 -61q0 -19 -8 -39q-22 -58 -83 -124t-150 -135t-181 -131l10 -1674h-5q-27 0 -50 18 q-25 20 -42 81t-26 175q-6 79 -6 191q0 50 1 107l-10 1022q-70 -40 -141 -90t-132 -99t-107 -95t-70 -78q-26 30 -26 64q0 8 1 16z" />
<glyph unicode="u" horiz-adv-x="638" d="M15 436v49q0 48 1 93q2 24 4 51t7 54t13 50t20 39q28 34 80 34q-6 -148 -6 -254t4 -180t13 -121t25 -75q24 -44 69 -53q17 -3 34 -4q29 0 59 10q48 15 91 48t61 71v554q12 8 26 8q4 0 9 -1q19 -3 37 -15t30 -33t14 -47l4 -724q-10 -2 -19 -2q-34 0 -56 24q-27 30 -37 88 q-34 -30 -82 -54t-102 -33q-23 -4 -46 -4q-30 0 -60 7q-52 12 -92 52q-36 36 -57 95t-32 129t-12 144z" />
<glyph unicode="v" horiz-adv-x="550" d="M18 790q25 16 50 16q12 0 24 -4q36 -12 50 -40l174 -534l104 484q6 26 25 47t41 32t40 11t18 -16q-6 -28 -18 -88l-27 -135t-32 -156t-33 -155t-29 -131t-21 -81t-26 -32q-13 -6 -27 -6q-5 0 -10 1q-19 3 -36 15t-21 28q-16 40 -37 103t-46 137t-50 152t-47 147t-40 123 t-26 82z" />
<glyph unicode="w" horiz-adv-x="758" d="M28 794q66 -4 87 -43t35 -103q4 -18 9 -76t9 -126t8 -127t4 -77q14 24 35 70t44 92t45 82t40 40q24 6 45 -21t46 -76t55 -116t70 -139q12 206 28 329t37 187t49 84t66 20q-24 -162 -40 -284t-26 -210t-16 -146t-10 -92q-4 -28 -20 -44t-37 -20q-8 -1 -15 -1q-13 0 -26 4 q-20 7 -32 25q-16 24 -37 68t-44 91t-45 91t-38 72q-18 -40 -39 -85t-41 -88t-37 -80t-27 -61t-30 -32q-13 -5 -27 -5l-13 1q-20 4 -36 17t-18 31q-10 142 -27 333t-31 415z" />
<glyph unicode="x" horiz-adv-x="648" d="M26 782q26 17 55 17q18 0 37 -6q50 -17 76 -57l138 -220l118 188q56 88 115 88q26 0 53 -18l-220 -378l220 -364q-10 -16 -31 -22t-45 -3t-48 16t-38 35l-126 216l-130 -220q-14 -22 -37 -35t-47 -16q-8 -1 -16 -1q-15 0 -29 4q-21 6 -31 22l222 368z" />
<glyph unicode="y" horiz-adv-x="740" d="M-888 -1266q6 166 76 297t184 233t261 178t306 130t320 88t303 56l4 482q-16 -38 -44 -68t-61 -51t-67 -32t-60 -11q-86 0 -149 36t-99 123t-46 233q-4 52 -4 114q0 111 12 254q10 15 26 15q3 0 7 -1q21 -4 41 -20t33 -40t9 -46q2 -48 2 -110t3 -125t12 -122t26 -104 t46 -70q23 -20 58 -20q8 0 17 1q86 12 133 70t71 138t33 170t15 164q2 24 17 47t34 38t38 19t31 -10l-14 -1060q152 16 283 35t237 31v-6q0 -30 -17 -52q-19 -24 -50 -41t-69 -26t-70 -13q-70 -10 -152 -23t-158 -27q-8 -160 -22 -332t-44 -340t-82 -322t-134 -275 t-200 -201t-280 -100q-48 -6 -95 -6q-109 0 -214 33q-149 47 -263 143t-182 232q-62 125 -62 269v25zM-744 -1280q0 -132 54 -243t144 -186t208 -109q74 -21 153 -21q47 0 95 7q138 20 238 94t170 185t115 250t72 291t40 306t19 296q-112 -14 -252 -42t-286 -74t-285 -112 t-247 -158t-174 -212q-64 -116 -64 -263v-9z" />
<glyph unicode="z" horiz-adv-x="648" d="M23 80q-1 6 -1 12q0 32 30 76q50 72 96 135t93 125t99 128t114 144q-22 1 -43 1l-109 -4q-38 -2 -72 -2.5t-64 2.5q-60 5 -97 26q-33 19 -33 68v11l496 2q22 0 39 -12t25 -32t6 -43t-18 -43q-50 -66 -109 -140t-117 -148t-110 -144t-90 -126l474 20q1 -6 1 -13 q0 -43 -37 -64q-42 -25 -112 -36t-160 -12t-176 -1q-48 0 -80 16q-38 18 -45 54z" />
<glyph unicode="{" horiz-adv-x="560" d="M11 649q5 23 17 41t26 26l180 104q12 66 24 127t32 115t51 102t81 86q38 30 70 38t56 3t37 -20t15 -33q-64 -28 -105 -69t-68 -95t-44 -121t-31 -147q-4 -30 -12 -49t-29 -37t-58 -39t-99 -53q48 -28 77 -48t44 -38t19 -38t2 -50q-4 -104 3 -191t39 -154t93 -111t165 -60 q-4 -28 -24 -46t-49 -26t-65 -3t-72 27q-72 42 -117 105t-69 138t-30 157t0 164l-126 104q-24 20 -31 44t-2 47z" />
<glyph unicode="|" horiz-adv-x="188" d="M28 1198q30 4 56 -10t42 -42q10 -16 15 -45t5 -97l16 -1000q-16 -10 -36 -7t-38 15t-31 33t-15 47z" />
<glyph unicode="}" horiz-adv-x="590" d="M-20 1238q2 18 15 33t37 20t56 -3t70 -38q50 -38 81 -86t50 -102t32 -115t25 -127l180 -104q14 -8 26 -26t17 -41t-2 -47t-31 -44l-126 -104q6 -82 0 -164t-30 -157t-69 -138t-117 -105q-36 -22 -72 -27t-65 3t-49 26t-24 46q104 16 165 60t93 111t39 154t3 191 q-2 30 1 50t18 38t45 38t78 48q-62 32 -99 53t-58 39t-29 37t-12 49q-14 80 -31 147t-44 121t-68 95t-105 69z" />
<glyph unicode="~" horiz-adv-x="840" d="M66 547q-6 37 6 78t39 75t66 55t87 17q74 -6 115 -41t67 -74t45 -70t53 -33q40 -2 62 13t35 37t23 49t26 49t41 36t71 12q-8 -60 -25 -116t-47 -98t-72 -66t-102 -24q-52 0 -87 17t-58 42t-38 54t-31 54t-35 41t-49 16q-32 0 -51 -20t-28 -50t-10 -68t5 -74q-50 2 -76 27 t-32 62z" />
<glyph unicode="&#xa1;" horiz-adv-x="184" d="M22 1140q0 32 22 45t48 12t48 -16t22 -37q0 -34 -22 -47t-48 -11t-48 17t-22 37zM36 92l6 880q62 10 94 -52q10 -16 15 -45t5 -97l-4 -774q-16 -10 -35 -7t-37 15t-30 33t-14 47z" />
<glyph unicode="&#xa2;" horiz-adv-x="642" d="M32 362q-6 154 63 267t191 171v142q62 10 94 -52q4 -10 8 -21t8 -29q14 4 27 5t29 5q34 4 63 -3t49 -22t28 -36t0 -47q-104 6 -192 -24l2 -558q84 0 176 34q12 -28 1 -54t-34 -46t-55 -32t-62 -12h-26l2 -122q-16 -10 -35 -7t-37 15t-30 33t-14 47v48q-48 10 -93 31 t-81 56t-58 87t-24 124zM162 354q6 -70 39 -113t85 -63v482q-64 -48 -99 -125t-25 -181z" />
<glyph unicode="&#xa3;" horiz-adv-x="764" d="M1 603q3 19 16 37t34 30t47 12h32q2 126 28 213t67 146t94 92t107 49q48 14 99 18t93 -5t69 -31t27 -60q-100 2 -183 -18t-143 -69t-93 -131t-33 -206l428 -4q6 -62 -54 -94q-16 -8 -45 -13t-97 -3h-236l12 -452q24 -2 68 -1t95 1t104 -4t96 -15t71 -33t28 -56 q-28 -6 -93 -8t-138 -2t-139 1t-96 1q-20 0 -42 3t-40 11t-30 23t-12 37l-8 494h-10l-116 2q-10 16 -7 35z" />
<glyph unicode="&#xa8;" horiz-adv-x="458" d="M26 884q0 36 25 51t55 14t55 -17t25 -42q0 -40 -25 -55t-55 -12t-55 20t-25 41zM278 884q0 36 25 51t55 14t55 -17t25 -42q0 -40 -25 -55t-55 -12t-55 20t-25 41z" />
<glyph unicode="&#xa9;" horiz-adv-x="1038" d="M18 578q4 112 40 219t103 191t162 135t219 49q114 -2 202 -52t147 -133t90 -188t33 -215t-27 -215t-90 -188t-154 -136t-221 -55q-134 -4 -231 46t-159 133t-90 190t-24 219zM128 582q-8 -128 31 -238t127 -183t228 -71q136 2 223 74t130 180t42 234t-43 234t-124 181 t-200 77q-126 4 -216 -68t-140 -182t-58 -238zM220 558q-2 68 18 132t63 117t111 91t164 50q34 4 63 -3t49 -22t28 -36t0 -47q-178 10 -278 -72t-90 -246q2 -60 35 -103t85 -64t119 -21t139 26q12 -28 1 -54t-34 -46t-55 -32t-62 -12q-60 0 -123 18t-114 58t-84 106t-35 160 z" />
<glyph unicode="&#xad;" horiz-adv-x="766" d="M45 611q3 19 16 37t34 30t47 12l592 -6q6 -62 -54 -94q-16 -8 -45 -13t-97 -3l-486 2q-10 16 -7 35z" />
<glyph unicode="&#xaf;" horiz-adv-x="760" d="M102 886q2 18 13 34t28 28t39 12l490 -6q4 -28 -9 -50t-35 -38q-14 -6 -38 -11t-80 -3l-402 2q-8 14 -6 32z" />
<glyph unicode="&#xb4;" horiz-adv-x="302" d="M42 854l98 200q16 28 56 37t82 -15l-100 -196q-10 -20 -30 -29t-41 -11t-39 2t-26 12z" />
<glyph unicode="&#xb8;" horiz-adv-x="280" d="M41 -31q1 27 1 63q8 16 24 24t34 8t32 -9t18 -27l-8 -60q66 -6 99 -41t37 -78t-19 -83t-67 -54q-28 -10 -51 -7t-39 14t-25 26t-9 33q40 4 76 12t36 38t-23 41t-53 9q-30 4 -43 15t-17 30t-3 46z" />
<glyph unicode="&#xbf;" horiz-adv-x="654" d="M20 264q-20 118 15 203t97 138t139 77t141 20l-4 252q48 0 72 -20t35 -59t11 -95t-2 -126q0 -34 -25 -55t-59 -17q-62 6 -123 -6t-105 -48t-66 -99t-8 -159q10 -70 45 -114t82 -60t98 -7t94 42t70 89t25 134q54 -14 74 -49t14 -78t-34 -88t-73 -81t-102 -57t-121 -15 q-120 10 -194 79t-96 199zM364 1126q0 38 25 53t55 12t55 -20t25 -41q0 -36 -25 -51t-55 -14t-55 18t-25 43z" />
<glyph unicode="&#xc0;" horiz-adv-x="802" d="M32 38q32 118 62 249t64 266t75 271t95 268q24 58 54 83t62 23q38 -2 72 -46t54 -108q20 -70 48 -185t57 -253t59 -288t56 -294q-44 -6 -74 34t-53 104t-40 141t-33 145l-334 -4q-18 -74 -36 -149t-42 -134t-59 -94t-87 -29zM278 570h278q-14 94 -29 179t-30 151t-29 107 t-28 47q-10 4 -25 -37t-36 -110t-46 -157t-55 -180zM292 1484q44 26 83 13t67 -63l80 -176q-8 -8 -23 -13t-33 -6t-35 4t-25 19z" />
<glyph unicode="&#xc1;" horiz-adv-x="802" d="M32 38q32 118 62 249t64 266t75 271t95 268q24 58 54 83t62 23q38 -2 72 -46t54 -108q20 -70 48 -185t57 -253t59 -288t56 -294q-44 -6 -74 34t-53 104t-40 141t-33 145l-334 -4q-18 -74 -36 -149t-42 -134t-59 -94t-87 -29zM278 570h278q-14 94 -29 179t-30 151t-29 107 t-28 47q-10 4 -25 -37t-36 -110t-46 -157t-55 -180zM282 1254l98 200q16 28 56 37t82 -15l-100 -196q-10 -20 -30 -29t-41 -11t-39 2t-26 12z" />
<glyph unicode="&#xc2;" horiz-adv-x="802" d="M32 38q32 118 62 249t64 266t75 271t95 268q24 58 54 83t62 23q38 -2 72 -46t54 -108q20 -70 48 -185t57 -253t59 -288t56 -294q-44 -6 -74 34t-53 104t-40 141t-33 145l-334 -4q-18 -74 -36 -149t-42 -134t-59 -94t-87 -29zM238 1256l128 248q14 22 33 31t38 7t36 -11 t25 -23l134 -260q-8 -8 -26 -13t-37 -6t-38 4t-27 21l-70 126l-64 -120q-10 -16 -30 -23t-41 -6t-38 8t-23 17zM278 570h278q-14 94 -29 179t-30 151t-29 107t-28 47q-10 4 -25 -37t-36 -110t-46 -157t-55 -180z" />
<glyph unicode="&#xc3;" horiz-adv-x="802" d="M32 38q32 118 62 249t64 266t75 271t95 268q24 58 54 83t62 23q38 -2 72 -46t54 -108q20 -70 48 -185t57 -253t59 -288t56 -294q-44 -6 -74 34t-53 104t-40 141t-33 145l-334 -4q-18 -74 -36 -149t-42 -134t-59 -94t-87 -29zM80 1325q-6 37 6 78t39 75t66 55t87 17 q74 -6 115 -41t67 -74t45 -70t53 -33q40 -2 62 13t35 37t23 49t26 49t41 36t71 12q-8 -60 -25 -116t-47 -98t-72 -66t-102 -24q-54 0 -88 17t-57 42t-38 54t-31 54t-35 41t-49 16q-32 0 -51 -20t-28 -50t-10 -68t5 -74q-50 2 -76 27t-32 62zM278 570h278q-14 94 -29 179 t-30 151t-29 107t-28 47q-10 4 -25 -37t-36 -110t-46 -157t-55 -180z" />
<glyph unicode="&#xc4;" horiz-adv-x="802" d="M32 38q32 118 62 249t64 266t75 271t95 268q24 58 54 83t62 23q38 -2 72 -46t54 -108q20 -70 48 -185t57 -253t59 -288t56 -294q-44 -6 -74 34t-53 104t-40 141t-33 145l-334 -4q-18 -74 -36 -149t-42 -134t-59 -94t-87 -29zM232 1284q0 36 25 51t55 14t55 -17t25 -42 q0 -40 -25 -55t-55 -12t-55 20t-25 41zM278 570h278q-14 94 -29 179t-30 151t-29 107t-28 47q-10 4 -25 -37t-36 -110t-46 -157t-55 -180zM484 1284q0 36 25 51t55 14t55 -17t25 -42q0 -40 -25 -55t-55 -12t-55 20t-25 41z" />
<glyph unicode="&#xc5;" horiz-adv-x="802" d="M32 38q32 118 62 249t64 266t75 271t95 268q24 58 54 83t62 23q38 -2 72 -46t54 -108q20 -70 48 -185t57 -253t59 -288t56 -294q-44 -6 -74 34t-53 104t-40 141t-33 145l-334 -4q-18 -74 -36 -149t-42 -134t-59 -94t-87 -29zM272 1338q-4 50 17 85t56 54t77 23t79 -8 t64 -40t31 -70q6 -72 -41 -111t-109 -46t-115 21t-59 92zM278 570h278q-14 94 -29 179t-30 151t-29 107t-28 47q-10 4 -25 -37t-36 -110t-46 -157t-55 -180zM360 1354q4 -32 28 -43t50 -7t47 21t19 39q-4 34 -28 47t-51 10t-48 -21t-17 -46z" />
<glyph unicode="&#xc6;" horiz-adv-x="1402" d="M14 10q102 236 222 513t258 565q28 58 64 82t68 22q24 -2 50 -28q34 38 98 38h590q8 -16 5 -35t-16 -36t-34 -29t-47 -12l-514 2q0 -6 1 -18t1 -51t1 -115t3 -210h444q8 -16 4 -34t-17 -34t-35 -26t-48 -10l-346 -6l14 -472l598 -4q8 -16 4 -34t-17 -34t-35 -26t-48 -10 l-506 -4q-42 0 -79 18t-37 70l-8 350l-318 -6q-38 -108 -74 -190t-74 -137t-80 -80t-92 -19zM376 560l262 6q2 94 0 179t-6 150t-13 107t-21 48q-8 2 -27 -40t-48 -112t-66 -159t-81 -179z" />
<glyph unicode="&#xc7;" horiz-adv-x="706" d="M34 590q4 106 35 197t77 162t100 122t106 79q56 30 109 41t95 4t69 -31t27 -62q-104 2 -192 -37t-153 -109t-102 -167t-41 -213q-4 -126 23 -224t90 -160t165 -83t250 7q-8 -54 -65 -83t-153 -33q-118 -6 -203 41t-140 128t-79 191t-18 230zM355 -43q1 27 1 63 q8 16 24 24t34 8t32 -9t18 -27l-8 -60q66 -6 99 -41t37 -78t-19 -83t-67 -54q-28 -10 -51 -7t-39 14t-25 26t-9 33q40 4 76 12t36 38t-23 41t-53 9q-30 4 -43 15t-17 30t-3 46z" />
<glyph unicode="&#xc8;" horiz-adv-x="788" d="M34 1086q0 54 34 85t92 31h590q8 -16 5 -35t-16 -36t-34 -29t-47 -12l-514 2q0 -6 1 -18t1 -51t1 -115t3 -210h444q8 -16 4 -34t-17 -34t-35 -26t-48 -10l-346 -6l8 -472l604 -4q8 -16 4 -34t-17 -34t-35 -26t-48 -10l-506 -4q-42 0 -79 18t-37 70zM284 1484q44 26 83 13 t67 -63l80 -176q-8 -8 -23 -13t-33 -6t-35 4t-25 19z" />
<glyph unicode="&#xc9;" horiz-adv-x="788" d="M34 1086q0 54 34 85t92 31h590q8 -16 5 -35t-16 -36t-34 -29t-47 -12l-514 2q0 -6 1 -18t1 -51t1 -115t3 -210h444q8 -16 4 -34t-17 -34t-35 -26t-48 -10l-346 -6l8 -472l604 -4q8 -16 4 -34t-17 -34t-35 -26t-48 -10l-506 -4q-42 0 -79 18t-37 70zM274 1254l98 200 q16 28 56 37t82 -15l-100 -196q-10 -20 -30 -29t-41 -11t-39 2t-26 12z" />
<glyph unicode="&#xca;" horiz-adv-x="788" d="M34 1086q0 54 34 85t92 31h590q8 -16 5 -35t-16 -36t-34 -29t-47 -12l-514 2q0 -6 1 -18t1 -51t1 -115t3 -210h444q8 -16 4 -34t-17 -34t-35 -26t-48 -10l-346 -6l8 -472l604 -4q8 -16 4 -34t-17 -34t-35 -26t-48 -10l-506 -4q-42 0 -79 18t-37 70zM196 1266l128 248 q14 22 33 31t38 7t36 -11t25 -23l134 -260q-8 -8 -26 -13t-37 -6t-38 4t-27 21l-70 126l-64 -120q-10 -16 -30 -23t-41 -6t-38 8t-23 17z" />
<glyph unicode="&#xcb;" horiz-adv-x="788" d="M34 1086q0 54 34 85t92 31h590q8 -16 5 -35t-16 -36t-34 -29t-47 -12l-514 2q0 -6 1 -18t1 -51t1 -115t3 -210h444q8 -16 4 -34t-17 -34t-35 -26t-48 -10l-346 -6l8 -472l604 -4q8 -16 4 -34t-17 -34t-35 -26t-48 -10l-506 -4q-42 0 -79 18t-37 70zM198 1308q0 36 25 51 t55 14t55 -17t25 -42q0 -40 -25 -55t-55 -12t-55 20t-25 41zM450 1308q0 36 25 51t55 14t55 -17t25 -42q0 -40 -25 -55t-55 -12t-55 20t-25 41z" />
<glyph unicode="&#xcc;" horiz-adv-x="188" d="M-12 1484q44 26 83 13t67 -63l80 -176q-8 -8 -23 -13t-33 -6t-35 4t-25 19zM28 1198q30 4 56 -10t42 -42q10 -16 15 -45t5 -97l16 -1000q-16 -10 -36 -7t-38 15t-31 33t-15 47z" />
<glyph unicode="&#xcd;" horiz-adv-x="188" d="M-22 1254l98 200q16 28 56 37t82 -15l-100 -196q-10 -20 -30 -29t-41 -11t-39 2t-26 12zM28 1198q30 4 56 -10t42 -42q10 -16 15 -45t5 -97l16 -1000q-16 -10 -36 -7t-38 15t-31 33t-15 47z" />
<glyph unicode="&#xce;" horiz-adv-x="188" d="M-100 1266l128 248q14 22 33 31t38 7t36 -11t25 -23l134 -260q-8 -8 -26 -13t-37 -6t-38 4t-27 21l-70 126l-64 -120q-10 -16 -30 -23t-41 -6t-38 8t-23 17zM28 1198q30 4 56 -10t42 -42q10 -16 15 -45t5 -97l16 -1000q-16 -10 -36 -7t-38 15t-31 33t-15 47z" />
<glyph unicode="&#xcf;" horiz-adv-x="188" d="M-152 1288q0 36 25 51t55 14t55 -17t25 -42q0 -40 -25 -55t-55 -12t-55 20t-25 41zM28 1198q30 4 56 -10t42 -42q10 -16 15 -45t5 -97l16 -1000q-16 -10 -36 -7t-38 15t-31 33t-15 47zM100 1288q0 36 25 51t55 14t55 -17t25 -42q0 -40 -25 -55t-55 -12t-55 20t-25 41z " />
<glyph unicode="&#xd0;" horiz-adv-x="770" d="M-51 571q3 19 16 37t34 30t47 12h54l-2 462q-12 2 -26 5t-25 11t-19 24t-8 44q206 20 347 -17t228 -115t124 -187t35 -235q-4 -174 -63 -301t-161 -207t-237 -111t-287 -11q10 32 30 59t68 31l-2 436l-146 -2q-10 16 -7 35zM218 1020q0 -48 1 -136t1 -234l200 2 q6 -62 -54 -94q-16 -8 -45 -13t-97 -3h-4v-426q92 0 168 46t132 120t87 167t31 189q0 80 -23 162t-73 148t-130 109t-190 43q-2 0 -3 -16t-1 -64z" />
<glyph unicode="&#xd1;" horiz-adv-x="850" d="M24 0l28 1116q8 40 24 59t35 21t39 -9t36 -31l520 -996q-2 274 -6 468t5 320t35 188t84 72v-1140q0 -28 -23 -46t-55 -23t-66 4t-56 39l-458 910q-4 -204 -4 -381t-10 -305t-38 -200t-90 -66zM104 1325q-6 37 6 78t39 75t66 55t87 17q74 -6 115 -41t67 -74t45 -70t53 -33 q40 -2 62 13t35 37t23 49t26 49t41 36t71 12q-8 -60 -25 -116t-47 -98t-72 -66t-102 -24q-54 0 -88 17t-57 42t-38 54t-31 54t-35 41t-49 16q-32 0 -51 -20t-28 -50t-10 -68t5 -74q-50 2 -76 27t-32 62z" />
<glyph unicode="&#xd2;" horiz-adv-x="786" d="M12 526q-4 122 22 244t77 219t127 158t172 61t169 -56t120 -147t69 -207t18 -234q-4 -108 -30 -210t-76 -181t-122 -128t-168 -49t-166 44t-117 117t-70 169t-25 200zM136 542q0 -84 16 -163t47 -140t77 -99t110 -40q66 -2 116 37t86 104t55 150t23 175q2 98 -14 193 t-49 169t-82 118t-111 42q-66 -4 -118 -53t-87 -126t-53 -173t-16 -194zM284 1484q44 26 83 13t67 -63l80 -176q-8 -8 -23 -13t-33 -6t-35 4t-25 19z" />
<glyph unicode="&#xd3;" horiz-adv-x="786" d="M12 526q-4 122 22 244t77 219t127 158t172 61t169 -56t120 -147t69 -207t18 -234q-4 -108 -30 -210t-76 -181t-122 -128t-168 -49t-166 44t-117 117t-70 169t-25 200zM136 542q0 -84 16 -163t47 -140t77 -99t110 -40q66 -2 116 37t86 104t55 150t23 175q2 98 -14 193 t-49 169t-82 118t-111 42q-66 -4 -118 -53t-87 -126t-53 -173t-16 -194zM274 1254l98 200q16 28 56 37t82 -15l-100 -196q-10 -20 -30 -29t-41 -11t-39 2t-26 12z" />
<glyph unicode="&#xd4;" horiz-adv-x="786" d="M12 526q-4 122 22 244t77 219t127 158t172 61t169 -56t120 -147t69 -207t18 -234q-4 -108 -30 -210t-76 -181t-122 -128t-168 -49t-166 44t-117 117t-70 169t-25 200zM136 542q0 -84 16 -163t47 -140t77 -99t110 -40q66 -2 116 37t86 104t55 150t23 175q2 98 -14 193 t-49 169t-82 118t-111 42q-66 -4 -118 -53t-87 -126t-53 -173t-16 -194zM196 1266l128 248q14 22 33 31t38 7t36 -11t25 -23l134 -260q-8 -8 -26 -13t-37 -6t-38 4t-27 21l-70 126l-64 -120q-10 -16 -30 -23t-41 -6t-38 8t-23 17z" />
<glyph unicode="&#xd5;" horiz-adv-x="786" d="M12 526q-4 122 22 244t77 219t127 158t172 61t169 -56t120 -147t69 -207t18 -234q-4 -108 -30 -210t-76 -181t-122 -128t-168 -49t-166 44t-117 117t-70 169t-25 200zM72 1325q-6 37 6 78t39 75t66 55t87 17q74 -6 115 -41t67 -74t45 -70t53 -33q40 -2 62 13t35 37t23 49 t26 49t41 36t71 12q-8 -60 -25 -116t-47 -98t-72 -66t-102 -24q-54 0 -88 17t-57 42t-38 54t-31 54t-35 41t-49 16q-32 0 -51 -20t-28 -50t-10 -68t5 -74q-50 2 -76 27t-32 62zM136 542q0 -84 16 -163t47 -140t77 -99t110 -40q66 -2 116 37t86 104t55 150t23 175 q2 98 -14 193t-49 169t-82 118t-111 42q-66 -4 -118 -53t-87 -126t-53 -173t-16 -194z" />
<glyph unicode="&#xd6;" horiz-adv-x="786" d="M12 526q-4 122 22 244t77 219t127 158t172 61t169 -56t120 -147t69 -207t18 -234q-4 -108 -30 -210t-76 -181t-122 -128t-168 -49t-166 44t-117 117t-70 169t-25 200zM136 542q0 -84 16 -163t47 -140t77 -99t110 -40q66 -2 116 37t86 104t55 150t23 175q2 98 -14 193 t-49 169t-82 118t-111 42q-66 -4 -118 -53t-87 -126t-53 -173t-16 -194zM186 1284q0 36 25 51t55 14t55 -17t25 -42q0 -40 -25 -55t-55 -12t-55 20t-25 41zM438 1284q0 36 25 51t55 14t55 -17t25 -42q0 -40 -25 -55t-55 -12t-55 20t-25 41z" />
<glyph unicode="&#xd7;" horiz-adv-x="786" d="M114 808q4 18 20 29t37 14t45 -4t42 -25l126 -138l206 192q18 -4 29 -20t14 -37t-4 -45t-25 -42l-142 -130l198 -216q-40 -46 -106 -24q-16 6 -39 23t-69 69l-68 70l-210 -194q-46 40 -24 106q6 16 24 39t68 69l66 64z" />
<glyph unicode="&#xd8;" horiz-adv-x="786" d="M12 526q-4 122 22 244t77 219t127 158t172 61t169 -56t120 -147t69 -207t18 -234q-4 -108 -30 -210t-76 -181t-122 -128t-168 -49t-166 44t-117 117t-70 169t-25 200zM136 542q0 -84 16 -163t47 -140t77 -99t110 -40q66 -2 116 37t86 104t55 150t23 175q2 98 -14 193 t-49 169t-82 118t-111 42q-66 -4 -118 -53t-87 -126t-53 -173t-16 -194zM157 62q-5 24 1 50l406 1100q30 -6 51 -28t25 -54q4 -20 -2 -49t-28 -93l-368 -998q-18 -4 -36 5t-31 26t-18 41z" />
<glyph unicode="&#xd9;" horiz-adv-x="708" d="M30 683q2 99 4 177q2 104 14 170t31 104t47 50t64 8q-8 -68 -18 -178t-15 -233t0 -246t26 -219t63 -151t112 -41q28 6 57 20t55 34t48 41t36 39l18 938q16 10 35 7t37 -15t30 -33t14 -47l-14 -1118q-48 -8 -75 22t-37 88q-48 -34 -90 -60t-100 -38q-94 -20 -156 15 t-101 104t-56 164t-24 197t-5 201zM248 1484q44 26 83 13t67 -63l80 -176q-8 -8 -23 -13t-33 -6t-35 4t-25 19z" />
<glyph unicode="&#xda;" horiz-adv-x="708" d="M30 683q2 99 4 177q2 104 14 170t31 104t47 50t64 8q-8 -68 -18 -178t-15 -233t0 -246t26 -219t63 -151t112 -41q28 6 57 20t55 34t48 41t36 39l18 938q16 10 35 7t37 -15t30 -33t14 -47l-14 -1118q-48 -8 -75 22t-37 88q-48 -34 -90 -60t-100 -38q-94 -20 -156 15 t-101 104t-56 164t-24 197t-5 201zM300 1248l98 200q16 28 56 37t82 -15l-100 -196q-10 -20 -30 -29t-41 -11t-39 2t-26 12z" />
<glyph unicode="&#xdb;" horiz-adv-x="708" d="M30 683q2 99 4 177q2 104 14 170t31 104t47 50t64 8q-8 -68 -18 -178t-15 -233t0 -246t26 -219t63 -151t112 -41q28 6 57 20t55 34t48 41t36 39l18 938q16 10 35 7t37 -15t30 -33t14 -47l-14 -1118q-48 -8 -75 22t-37 88q-48 -34 -90 -60t-100 -38q-94 -20 -156 15 t-101 104t-56 164t-24 197t-5 201zM186 1262l128 248q14 22 33 31t38 7t36 -11t25 -23l134 -260q-8 -8 -26 -13t-37 -6t-38 4t-27 21l-70 126l-64 -120q-10 -16 -30 -23t-41 -6t-38 8t-23 17z" />
<glyph unicode="&#xdc;" horiz-adv-x="708" d="M30 683q2 99 4 177q2 104 14 170t31 104t47 50t64 8q-8 -68 -18 -178t-15 -233t0 -246t26 -219t63 -151t112 -41q28 6 57 20t55 34t48 41t36 39l18 938q16 10 35 7t37 -15t30 -33t14 -47l-14 -1118q-48 -8 -75 22t-37 88q-48 -34 -90 -60t-100 -38q-94 -20 -156 15 t-101 104t-56 164t-24 197t-5 201zM182 1294q0 36 25 51t55 14t55 -17t25 -42q0 -40 -25 -55t-55 -12t-55 20t-25 41zM434 1294q0 36 25 51t55 14t55 -17t25 -42q0 -40 -25 -55t-55 -12t-55 20t-25 41z" />
<glyph unicode="&#xdd;" horiz-adv-x="836" d="M18 1172q38 24 82 22t70 -36l308 -432l196 408q8 24 27 39t41 22t42 6t30 -9q-6 -30 -25 -79t-46 -110t-58 -126t-59 -124t-50 -108t-32 -75q0 -6 1 -21t1 -70t1 -166t5 -309q-16 -10 -36 -7t-39 15t-32 33t-15 47q-2 182 -5 281t-6 144t-5 53t-2 10zM372 1248l98 200 q16 28 56 37t82 -15l-100 -196q-10 -20 -30 -29t-41 -11t-39 2t-26 12z" />
<glyph unicode="&#xde;" horiz-adv-x="638" d="M20 0v1204q44 -2 65 -31t30 -69t9 -82t2 -70q62 8 148 6t163 -27t132 -79t55 -150q0 -88 -37 -160t-104 -124t-159 -82t-198 -36q0 -88 -2 -145t-13 -90t-32 -47t-59 -18zM126 422q86 -2 158 21t123 62t78 90t25 107q-4 62 -47 98t-103 49t-125 8t-109 -23v-412z" />
<glyph unicode="&#xdf;" horiz-adv-x="616" d="M16 874q6 68 27 128t60 104t95 69t132 25q66 -2 113 -34t73 -83t29 -113t-16 -123t-63 -114t-114 -85q74 -10 128 -48t86 -97t40 -133t-12 -152q-24 -84 -84 -146t-166 -72q-40 -4 -87 0t-89 20q8 32 24 48t38 22t48 6h54q68 6 107 56t53 108q14 74 -2 134t-56 100 t-103 59t-141 11q-8 36 -5 60t12 38t19 20t16 10q42 20 81 49t68 64t45 76t14 85q-4 66 -38 100t-82 32q-60 -2 -97 -30t-58 -68t-29 -86t-10 -86l-4 -706q-4 -78 -31 -110t-73 -28z" />
<glyph unicode="&#xe0;" horiz-adv-x="692" d="M27 271q7 83 49 176t122 181q58 64 147 110t185 56q64 0 100 -26t36 -96v-167t-2 -181t-4 -182t-6 -170q-18 2 -42 9t-43 37t-27 91t4 169q-26 -66 -73 -125t-105 -97t-120 -49t-118 19q-58 32 -84 97t-19 148zM145 285q-9 -63 4 -109t53 -54q62 -14 124 41t111 144 t76 192t19 183q-84 -10 -149 -46t-113 -88q-52 -58 -84 -129t-41 -134zM380 1092q44 26 83 13t67 -63l80 -176q-8 -8 -23 -13t-33 -6t-35 4t-25 19z" />
<glyph unicode="&#xe1;" horiz-adv-x="692" d="M27 271q7 83 49 176t122 181q58 64 147 110t185 56q64 0 100 -26t36 -96v-167t-2 -181t-4 -182t-6 -170q-18 2 -42 9t-43 37t-27 91t4 169q-26 -66 -73 -125t-105 -97t-120 -49t-118 19q-58 32 -84 97t-19 148zM145 285q-9 -63 4 -109t53 -54q62 -14 124 41t111 144 t76 192t19 183q-84 -10 -149 -46t-113 -88q-52 -58 -84 -129t-41 -134zM334 846l98 200q16 28 56 37t82 -15l-100 -196q-10 -20 -30 -29t-41 -11t-39 2t-26 12z" />
<glyph unicode="&#xe2;" horiz-adv-x="692" d="M27 271q7 83 49 176t122 181q58 64 147 110t185 56q64 0 100 -26t36 -96v-167t-2 -181t-4 -182t-6 -170q-18 2 -42 9t-43 37t-27 91t4 169q-26 -66 -73 -125t-105 -97t-120 -49t-118 19q-58 32 -84 97t-19 148zM145 285q-9 -63 4 -109t53 -54q62 -14 124 41t111 144 t76 192t19 183q-84 -10 -149 -46t-113 -88q-52 -58 -84 -129t-41 -134zM268 858l128 248q14 22 33 31t38 7t36 -11t25 -23l134 -260q-8 -8 -26 -13t-37 -6t-38 4t-27 21l-70 126l-64 -120q-10 -16 -30 -23t-41 -6t-38 8t-23 17z" />
<glyph unicode="&#xe3;" horiz-adv-x="692" d="M27 271q7 83 49 176t122 181q58 64 147 110t185 56q64 0 100 -26t36 -96v-167t-2 -181t-4 -182t-6 -170q-18 2 -42 9t-43 37t-27 91t4 169q-26 -66 -73 -125t-105 -97t-120 -49t-118 19q-58 32 -84 97t-19 148zM104 959q-6 37 6 78t39 75t66 55t87 17q74 -6 115 -41 t67 -74t45 -70t53 -33q40 -2 62 13t35 37t23 49t26 49t41 36t71 12q-8 -60 -25 -116t-47 -98t-72 -66t-102 -24q-54 0 -88 17t-57 42t-38 54t-31 54t-35 41t-49 16q-32 0 -51 -20t-28 -50t-10 -68t5 -74q-50 2 -76 27t-32 62zM145 285q-9 -63 4 -109t53 -54q62 -14 124 41 t111 144t76 192t19 183q-84 -10 -149 -46t-113 -88q-52 -58 -84 -129t-41 -134z" />
<glyph unicode="&#xe4;" horiz-adv-x="692" d="M27 271q7 83 49 176t122 181q58 64 147 110t185 56q64 0 100 -26t36 -96v-167t-2 -181t-4 -182t-6 -170q-18 2 -42 9t-43 37t-27 91t4 169q-26 -66 -73 -125t-105 -97t-120 -49t-118 19q-58 32 -84 97t-19 148zM145 285q-9 -63 4 -109t53 -54q62 -14 124 41t111 144 t76 192t19 183q-84 -10 -149 -46t-113 -88q-52 -58 -84 -129t-41 -134zM242 900q0 36 25 51t55 14t55 -17t25 -42q0 -40 -25 -55t-55 -12t-55 20t-25 41zM494 900q0 36 25 51t55 14t55 -17t25 -42q0 -40 -25 -55t-55 -12t-55 20t-25 41z" />
<glyph unicode="&#xe5;" horiz-adv-x="692" d="M27 271q7 83 49 176t122 181q58 64 147 110t185 56q64 0 100 -26t36 -96v-167t-2 -181t-4 -182t-6 -170q-18 2 -42 9t-43 37t-27 91t4 169q-26 -66 -73 -125t-105 -97t-120 -49t-118 19q-58 32 -84 97t-19 148zM145 285q-9 -63 4 -109t53 -54q62 -14 124 41t111 144 t76 192t19 183q-84 -10 -149 -46t-113 -88q-52 -58 -84 -129t-41 -134zM302 942q-4 50 17 85t56 54t77 23t79 -8t64 -40t31 -70q6 -72 -41 -111t-109 -46t-115 21t-59 92zM390 958q4 -32 28 -43t50 -7t47 21t19 39q-4 34 -28 47t-51 10t-48 -21t-17 -46z" />
<glyph unicode="&#xe6;" horiz-adv-x="1132" d="M26 210q2 76 29 156t73 153t106 131t128 92t138 37t136 -37q38 26 84 40t104 14q42 0 88 -12t85 -37t65 -64t26 -95q-2 -94 -58 -145t-132 -69t-155 -9t-127 35q-2 -56 10 -108t41 -91t73 -62t104 -23q26 0 60 10t69 24t67 31t54 31q10 -32 1 -61t-28 -52t-46 -41 t-51 -28q-38 -16 -76 -24t-68 -8q-36 0 -79 10t-85 34t-78 65t-60 103q-30 -58 -77 -107t-101 -80t-110 -38t-106 21t-78 81t-26 123zM143 159q13 -45 59 -57q40 -10 81 11t79 64t71 102t57 123q10 68 23 134t39 122q-66 16 -132 -18t-123 -95t-98 -137t-55 -144 q-14 -60 -1 -105zM622 506q38 -14 92 -22t107 -2t95 30t54 76q0 28 -15 47t-38 30t-51 16t-52 5q-60 0 -107 -42t-73 -100l-2 -2z" />
<glyph unicode="&#xe7;" horiz-adv-x="632" d="M34 308q-4 100 26 184t85 147t134 104t175 53q34 4 63 -3t49 -22t28 -36t0 -47q-90 6 -171 -16t-142 -71t-94 -124t-23 -177q6 -76 45 -120t98 -61t130 -11t143 32q12 -28 1 -54t-34 -46t-55 -32t-62 -12q-60 0 -128 11t-127 45t-98 95t-43 161zM285 -31q1 27 1 63 q8 16 24 24t34 8t32 -9t18 -27l-8 -60q66 -6 99 -41t37 -78t-19 -83t-67 -54q-28 -10 -51 -7t-39 14t-25 26t-9 33q40 4 76 12t36 38t-23 41t-53 9q-30 4 -43 15t-17 30t-3 46z" />
<glyph unicode="&#xe8;" horiz-adv-x="662" d="M20 430q16 170 97 268t237 98q42 0 88 -12t85 -37t65 -64t26 -95q-2 -64 -29 -107t-69 -69t-94 -38t-105 -12t-100 10t-79 28q-2 -56 11 -108t42 -91t74 -62t105 -23q26 0 60 10t69 24t67 31t54 31q10 -32 1 -61t-28 -52t-46 -41t-51 -28q-38 -16 -76 -24t-68 -8 q-50 0 -109 19t-110 68t-85 132t-32 213zM152 508q38 -14 92 -22t107 -3t95 29t54 76q0 28 -15 47t-38 30t-51 16t-52 5q-70 0 -120 -54t-72 -124zM226 1084q44 26 83 13t67 -63l80 -176q-8 -8 -23 -13t-33 -6t-35 4t-25 19z" />
<glyph unicode="&#xe9;" horiz-adv-x="662" d="M20 430q16 170 97 268t237 98q42 0 88 -12t85 -37t65 -64t26 -95q-2 -64 -29 -107t-69 -69t-94 -38t-105 -12t-100 10t-79 28q-2 -56 11 -108t42 -91t74 -62t105 -23q26 0 60 10t69 24t67 31t54 31q10 -32 1 -61t-28 -52t-46 -41t-51 -28q-38 -16 -76 -24t-68 -8 q-50 0 -109 19t-110 68t-85 132t-32 213zM152 508q38 -14 92 -22t107 -3t95 29t54 76q0 28 -15 47t-38 30t-51 16t-52 5q-70 0 -120 -54t-72 -124zM212 854l98 200q16 28 56 37t82 -15l-100 -196q-10 -20 -30 -29t-41 -11t-39 2t-26 12z" />
<glyph unicode="&#xea;" horiz-adv-x="662" d="M20 430q16 170 97 268t237 98q42 0 88 -12t85 -37t65 -64t26 -95q-2 -64 -29 -107t-69 -69t-94 -38t-105 -12t-100 10t-79 28q-2 -56 11 -108t42 -91t74 -62t105 -23q26 0 60 10t69 24t67 31t54 31q10 -32 1 -61t-28 -52t-46 -41t-51 -28q-38 -16 -76 -24t-68 -8 q-50 0 -109 19t-110 68t-85 132t-32 213zM134 866l128 248q14 22 33 31t38 7t36 -11t25 -23l134 -260q-8 -8 -26 -13t-37 -6t-38 4t-27 21l-70 126l-64 -120q-10 -16 -30 -23t-41 -6t-38 8t-23 17zM152 508q38 -14 92 -22t107 -3t95 29t54 76q0 28 -15 47t-38 30t-51 16 t-52 5q-70 0 -120 -54t-72 -124z" />
<glyph unicode="&#xeb;" horiz-adv-x="662" d="M20 430q16 170 97 268t237 98q42 0 88 -12t85 -37t65 -64t26 -95q-2 -64 -29 -107t-69 -69t-94 -38t-105 -12t-100 10t-79 28q-2 -56 11 -108t42 -91t74 -62t105 -23q26 0 60 10t69 24t67 31t54 31q10 -32 1 -61t-28 -52t-46 -41t-51 -28q-38 -16 -76 -24t-68 -8 q-50 0 -109 19t-110 68t-85 132t-32 213zM124 884q0 36 25 51t55 14t55 -17t25 -42q0 -40 -25 -55t-55 -12t-55 20t-25 41zM152 508q38 -14 92 -22t107 -3t95 29t54 76q0 28 -15 47t-38 30t-51 16t-52 5q-70 0 -120 -54t-72 -124zM376 884q0 36 25 51t55 14t55 -17t25 -42 q0 -40 -25 -55t-55 -12t-55 20t-25 41z" />
<glyph unicode="&#xec;" horiz-adv-x="182" d="M-18 1114q44 26 83 13t67 -63l80 -176q-8 -8 -23 -13t-33 -6t-35 4t-25 19zM42 816q62 10 94 -52q10 -16 15 -45t5 -97l6 -618q-16 -10 -35 -7t-37 15t-30 33t-14 47z" />
<glyph unicode="&#xed;" horiz-adv-x="182" d="M-24 854l98 200q16 28 56 37t82 -15l-100 -196q-10 -20 -30 -29t-41 -11t-39 2t-26 12zM42 816q62 10 94 -52q10 -16 15 -45t5 -97l6 -618q-16 -10 -35 -7t-37 15t-30 33t-14 47z" />
<glyph unicode="&#xee;" horiz-adv-x="182" d="M-104 866l128 248q14 22 33 31t38 7t36 -11t25 -23l134 -260q-8 -8 -26 -13t-37 -6t-38 4t-27 21l-70 126l-64 -120q-10 -16 -30 -23t-41 -6t-38 8t-23 17zM42 816q62 10 94 -52q10 -16 15 -45t5 -97l6 -618q-16 -10 -35 -7t-37 15t-30 33t-14 47z" />
<glyph unicode="&#xef;" horiz-adv-x="182" d="M-112 924q0 36 25 51t55 14t55 -17t25 -42q0 -40 -25 -55t-55 -12t-55 20t-25 41zM42 816q62 10 94 -52q10 -16 15 -45t5 -97l6 -618q-16 -10 -35 -7t-37 15t-30 33t-14 47zM140 924q0 36 25 51t55 14t55 -17t25 -42q0 -40 -25 -55t-55 -12t-55 20t-25 41z" />
<glyph unicode="&#xf1;" horiz-adv-x="628" d="M-18 963q-6 37 6 78t39 75t66 55t87 17q74 -6 115 -41t67 -74t45 -70t53 -33q40 -2 62 13t35 37t23 49t26 49t41 36t71 12q-8 -60 -25 -116t-47 -98t-72 -66t-102 -24q-54 0 -88 17t-57 42t-38 54t-31 54t-35 41t-49 16q-32 0 -51 -20t-28 -50t-10 -68t5 -74 q-50 2 -76 27t-32 62zM18 816q48 8 75 -22t37 -88q32 30 81 54t103 33t106 -3t92 -52q36 -36 57 -95t32 -129t12 -144t-1 -142q-2 -24 -4 -51t-7 -54t-13 -51t-20 -38q-28 -34 -80 -34q6 148 6 254t-4 180t-14 121t-24 75q-24 44 -69 53t-93 -6t-91 -48t-61 -71v-554 q-16 -10 -35 -7t-37 15t-30 33t-14 47z" />
<glyph unicode="&#xf2;" d="M28 360q0 80 21 160t61 143t99 102t135 37t131 -37t89 -92t48 -130t10 -147t-27 -144t-63 -125t-96 -90t-128 -37t-125 27t-88 80t-51 117t-16 136zM142 354q0 -46 9 -89t29 -76t52 -54t74 -21q44 -2 80 23t62 66t42 94t20 107q4 52 -4 103t-28 91t-54 65t-82 25 q-42 0 -78 -31t-63 -79t-42 -107t-17 -117zM224 1084q44 26 83 13t67 -63l80 -176q-8 -8 -23 -13t-33 -6t-35 4t-25 19z" />
<glyph unicode="&#xf3;" d="M28 360q0 80 21 160t61 143t99 102t135 37t131 -37t89 -92t48 -130t10 -147t-27 -144t-63 -125t-96 -90t-128 -37t-125 27t-88 80t-51 117t-16 136zM142 354q0 -46 9 -89t29 -76t52 -54t74 -21q44 -2 80 23t62 66t42 94t20 107q4 52 -4 103t-28 91t-54 65t-82 25 q-42 0 -78 -31t-63 -79t-42 -107t-17 -117zM210 854l98 200q16 28 56 37t82 -15l-100 -196q-10 -20 -30 -29t-41 -11t-39 2t-26 12z" />
<glyph unicode="&#xf4;" d="M28 360q0 80 21 160t61 143t99 102t135 37t131 -37t89 -92t48 -130t10 -147t-27 -144t-63 -125t-96 -90t-128 -37t-125 27t-88 80t-51 117t-16 136zM132 866l128 248q14 22 33 31t38 7t36 -11t25 -23l134 -260q-8 -8 -26 -13t-37 -6t-38 4t-27 21l-70 126l-64 -120 q-10 -16 -30 -23t-41 -6t-38 8t-23 17zM142 354q0 -46 9 -89t29 -76t52 -54t74 -21q44 -2 80 23t62 66t42 94t20 107q4 52 -4 103t-28 91t-54 65t-82 25q-42 0 -78 -31t-63 -79t-42 -107t-17 -117z" />
<glyph unicode="&#xf5;" d="M10 925q-6 37 6 78t39 75t66 55t87 17q74 -6 115 -41t67 -74t45 -70t53 -33q40 -2 62 13t35 37t23 49t26 49t41 36t71 12q-8 -60 -25 -116t-47 -98t-72 -66t-102 -24q-54 0 -88 17t-57 42t-38 54t-31 54t-35 41t-49 16q-32 0 -51 -20t-28 -50t-10 -68t5 -74q-50 2 -76 27 t-32 62zM28 360q0 80 21 160t61 143t99 102t135 37t131 -37t89 -92t48 -130t10 -147t-27 -144t-63 -125t-96 -90t-128 -37t-125 27t-88 80t-51 117t-16 136zM142 354q0 -46 9 -89t29 -76t52 -54t74 -21q44 -2 80 23t62 66t42 94t20 107q4 52 -4 103t-28 91t-54 65t-82 25 q-42 0 -78 -31t-63 -79t-42 -107t-17 -117z" />
<glyph unicode="&#xf6;" d="M28 360q0 80 21 160t61 143t99 102t135 37t131 -37t89 -92t48 -130t10 -147t-27 -144t-63 -125t-96 -90t-128 -37t-125 27t-88 80t-51 117t-16 136zM122 884q0 36 25 51t55 14t55 -17t25 -42q0 -40 -25 -55t-55 -12t-55 20t-25 41zM142 354q0 -46 9 -89t29 -76t52 -54 t74 -21q44 -2 80 23t62 66t42 94t20 107q4 52 -4 103t-28 91t-54 65t-82 25q-42 0 -78 -31t-63 -79t-42 -107t-17 -117zM374 884q0 36 25 51t55 14t55 -17t25 -42q0 -40 -25 -55t-55 -12t-55 20t-25 41z" />
<glyph unicode="&#xf7;" horiz-adv-x="790" d="M47 531q3 19 16 37t34 30t47 12l592 -6q6 -62 -54 -94q-16 -8 -45 -13t-97 -3l-486 2q-10 16 -7 35zM302 848q0 36 25 51t55 14t55 -18t25 -43q0 -38 -25 -53t-55 -12t-55 20t-25 41zM304 406q0 36 25 51t55 14t55 -18t25 -43q0 -38 -25 -53t-55 -12t-55 20t-25 41z" />
<glyph unicode="&#xf8;" d="M28 360q0 80 21 160t61 143t99 102t135 37q50 -4 84 -14l38 92q30 -6 51 -28t25 -54q2 -16 1 -33t-11 -49q52 -58 73 -144t17 -176q-4 -74 -27 -144t-63 -125t-96 -90t-128 -37q-40 0 -72 6l-44 -102q-18 -4 -36 5t-31 26t-18 41t1 50l18 44q-52 52 -75 128t-23 162z M148 354q-2 -44 6 -84t26 -72l200 478q-18 6 -38 6q-42 0 -77 -30t-61 -77t-40 -105t-16 -116zM284 120q6 -2 22 -2q44 -2 80 22t62 65t42 93t20 106q4 50 -3 97t-25 85z" />
<glyph unicode="&#xf9;" horiz-adv-x="638" d="M15 436q-1 74 1 142q2 24 4 51t7 54t13 50t20 39q28 34 80 34q-6 -148 -6 -254t4 -180t13 -121t25 -75q24 -44 69 -53t93 6t91 48t61 71v554q16 10 35 7t37 -15t30 -33t14 -47l4 -724q-48 -8 -75 22t-37 88q-34 -30 -82 -54t-102 -33t-106 3t-92 52q-36 36 -57 95 t-32 129t-12 144zM214 1084q44 26 83 13t67 -63l80 -176q-8 -8 -23 -13t-33 -6t-35 4t-25 19z" />
<glyph unicode="&#xfa;" horiz-adv-x="638" d="M15 436q-1 74 1 142q2 24 4 51t7 54t13 50t20 39q28 34 80 34q-6 -148 -6 -254t4 -180t13 -121t25 -75q24 -44 69 -53t93 6t91 48t61 71v554q16 10 35 7t37 -15t30 -33t14 -47l4 -724q-48 -8 -75 22t-37 88q-34 -30 -82 -54t-102 -33t-106 3t-92 52q-36 36 -57 95 t-32 129t-12 144zM254 854l98 200q16 28 56 37t82 -15l-100 -196q-10 -20 -30 -29t-41 -11t-39 2t-26 12z" />
<glyph unicode="&#xfb;" horiz-adv-x="638" d="M15 436q-1 74 1 142q2 24 4 51t7 54t13 50t20 39q28 34 80 34q-6 -148 -6 -254t4 -180t13 -121t25 -75q24 -44 69 -53t93 6t91 48t61 71v554q16 10 35 7t37 -15t30 -33t14 -47l4 -724q-48 -8 -75 22t-37 88q-34 -30 -82 -54t-102 -33t-106 3t-92 52q-36 36 -57 95 t-32 129t-12 144zM122 866l128 248q14 22 33 31t38 7t36 -11t25 -23l134 -260q-8 -8 -26 -13t-37 -6t-38 4t-27 21l-70 126l-64 -120q-10 -16 -30 -23t-41 -6t-38 8t-23 17z" />
<glyph unicode="&#xfc;" horiz-adv-x="638" d="M15 436q-1 74 1 142q2 24 4 51t7 54t13 50t20 39q28 34 80 34q-6 -148 -6 -254t4 -180t13 -121t25 -75q24 -44 69 -53t93 6t91 48t61 71v554q16 10 35 7t37 -15t30 -33t14 -47l4 -724q-48 -8 -75 22t-37 88q-34 -30 -82 -54t-102 -33t-106 3t-92 52q-36 36 -57 95 t-32 129t-12 144zM118 908q0 36 25 51t55 14t55 -17t25 -42q0 -40 -25 -55t-55 -12t-55 20t-25 41zM370 908q0 36 25 51t55 14t55 -17t25 -42q0 -40 -25 -55t-55 -12t-55 20t-25 41z" />
<glyph unicode="&#xfd;" horiz-adv-x="740" d="M-888 -1266q6 166 76 297t184 233t261 178t306 130t320 88t303 56l4 482q-16 -38 -44 -68t-61 -51t-67 -32t-60 -11q-86 0 -149 36t-99 123t-46 233t8 368q12 18 33 14t41 -20t33 -40t9 -46q2 -48 2 -110t3 -125t12 -122t26 -104t46 -70t75 -19q86 12 133 70t71 138 t33 170t15 164q2 24 17 47t34 38t38 19t31 -10l-14 -1060q152 16 283 35t237 31q2 -34 -17 -58t-50 -41t-69 -26t-70 -13q-70 -10 -152 -23t-158 -27q-8 -160 -22 -332t-44 -340t-82 -322t-134 -275t-200 -201t-280 -100q-160 -20 -309 27t-263 143t-182 232t-62 294z M-744 -1280q0 -132 54 -243t144 -186t208 -109t248 -14q138 20 238 94t170 185t115 250t72 291t40 306t19 296q-112 -14 -252 -42t-286 -74t-285 -112t-247 -158t-174 -212t-64 -272zM252 854l98 200q16 28 56 37t82 -15l-100 -196q-10 -20 -30 -29t-41 -11t-39 2t-26 12z " />
<glyph unicode="&#xfe;" horiz-adv-x="650" d="M26 -294v1204q44 -2 65 -31t30 -69t9 -82t2 -70q62 8 148 6t163 -27t132 -79t55 -150q0 -88 -37 -160t-104 -124t-159 -82t-198 -36q0 -88 -2 -145t-13 -90t-32 -47t-59 -18zM132 128q86 -2 158 21t123 62t78 90t25 107q-4 62 -47 98t-103 49t-125 8t-109 -23v-412z" />
<glyph unicode="&#xff;" horiz-adv-x="740" d="M-888 -1266q6 166 76 297t184 233t261 178t306 130t320 88t303 56l4 482q-16 -38 -44 -68t-61 -51t-67 -32t-60 -11q-86 0 -149 36t-99 123t-46 233t8 368q12 18 33 14t41 -20t33 -40t9 -46q2 -48 2 -110t3 -125t12 -122t26 -104t46 -70t75 -19q86 12 133 70t71 138 t33 170t15 164q2 24 17 47t34 38t38 19t31 -10l-14 -1060q152 16 283 35t237 31q2 -34 -17 -58t-50 -41t-69 -26t-70 -13q-70 -10 -152 -23t-158 -27q-8 -160 -22 -332t-44 -340t-82 -322t-134 -275t-200 -201t-280 -100q-160 -20 -309 27t-263 143t-182 232t-62 294z M-744 -1280q0 -132 54 -243t144 -186t208 -109t248 -14q138 20 238 94t170 185t115 250t72 291t40 306t19 296q-112 -14 -252 -42t-286 -74t-285 -112t-247 -158t-174 -212t-64 -272zM164 884q0 36 25 51t55 14t55 -17t25 -42q0 -40 -25 -55t-55 -12t-55 20t-25 41zM416 884 q0 36 25 51t55 14t55 -17t25 -42q0 -40 -25 -55t-55 -12t-55 20t-25 41z" />
<glyph unicode="&#x152;" horiz-adv-x="1158" d="M26 532q-4 122 22 244t77 219t127 158t172 61q38 0 68 -16q4 0 18 1t74 2t185 1h351q8 -16 5 -35t-16 -36t-34 -29t-47 -12l-514 2q0 -6 1 -18t1 -51t1 -115t3 -210h444q8 -16 4 -34t-17 -34t-35 -26t-48 -10l-346 -6l8 -472l604 -4q8 -16 4 -34t-17 -34t-35 -26t-48 -10 q-196 -2 -306 -2h-164t-69 1t-21 3q-18 -4 -37 -6t-37 -2q-96 0 -166 44t-117 117t-70 169t-25 200zM150 548q0 -84 16 -163t47 -140t77 -99t110 -40h16l-12 980v6q-62 -10 -110 -61t-81 -127t-49 -169t-14 -187z" />
<glyph unicode="&#x153;" horiz-adv-x="1010" d="M34 350q0 80 21 160t61 143t99 102t135 37q48 -2 86 -16t70 -40q78 60 196 60q42 0 88 -12t85 -37t65 -64t26 -95q-2 -64 -29 -107t-69 -69t-94 -38t-105 -12t-100 10t-79 28q-2 -56 11 -108t42 -91t74 -62t105 -23q26 0 60 10t69 24t67 31t54 31q10 -32 1 -61t-28 -52 t-46 -41t-51 -28q-38 -16 -76 -24t-68 -8q-46 0 -102 17t-106 59q-28 -26 -67 -50t-115 -34q-72 -10 -125 19t-87 81t-51 121t-17 139zM154 344q0 -46 8 -88t27 -75t50 -53t73 -20q62 -2 114 52q-28 48 -44 114t-14 156q12 132 62 216q-18 12 -38 19t-44 7q-42 0 -77 -30 t-61 -77t-40 -105t-16 -116zM500 508q38 -14 92 -22t107 -3t95 29t54 76q0 28 -15 47t-38 30t-51 16t-52 5q-70 0 -120 -54t-72 -124z" />
<glyph unicode="&#x178;" horiz-adv-x="836" d="M18 1172q38 24 82 22t70 -36l308 -432l196 408q8 24 27 39t41 22t42 6t30 -9q-6 -30 -25 -79t-46 -110t-58 -126t-59 -124t-50 -108t-32 -75q0 -6 1 -21t1 -70t1 -166t5 -309q-16 -10 -36 -7t-39 15t-32 33t-15 47q-2 182 -5 281t-6 144t-5 53t-2 10zM232 1274 q0 36 25 51t55 14t55 -17t25 -42q0 -40 -25 -55t-55 -12t-55 20t-25 41zM484 1274q0 36 25 51t55 14t55 -17t25 -42q0 -40 -25 -55t-55 -12t-55 20t-25 41z" />
<glyph unicode="&#x2c6;" horiz-adv-x="476" d="M46 866l128 248q14 22 33 31t38 7t36 -11t25 -23l134 -260q-8 -8 -26 -13t-37 -6t-38 4t-27 21l-70 126l-64 -120q-10 -16 -30 -23t-41 -6t-38 8t-23 17z" />
<glyph unicode="&#x2dc;" horiz-adv-x="776" d="M30 925q-6 37 6 78t39 75t66 55t87 17q74 -6 115 -41t67 -74t45 -70t53 -33q40 -2 62 13t35 37t23 49t26 49t41 36t71 12q-8 -60 -25 -116t-47 -98t-72 -66t-102 -24q-54 0 -88 17t-57 42t-38 54t-31 54t-35 41t-49 16q-32 0 -51 -20t-28 -50t-10 -68t5 -74q-50 2 -76 27 t-32 62z" />
<glyph unicode="&#x2000;" horiz-adv-x="1231" />
<glyph unicode="&#x2001;" horiz-adv-x="2462" />
<glyph unicode="&#x2002;" horiz-adv-x="1231" />
<glyph unicode="&#x2003;" horiz-adv-x="2462" />
<glyph unicode="&#x2004;" horiz-adv-x="820" />
<glyph unicode="&#x2005;" horiz-adv-x="615" />
<glyph unicode="&#x2006;" horiz-adv-x="410" />
<glyph unicode="&#x2007;" horiz-adv-x="410" />
<glyph unicode="&#x2008;" horiz-adv-x="307" />
<glyph unicode="&#x2009;" horiz-adv-x="492" />
<glyph unicode="&#x200a;" horiz-adv-x="136" />
<glyph unicode="&#x2010;" horiz-adv-x="766" d="M45 611q3 19 16 37t34 30t47 12l592 -6q6 -62 -54 -94q-16 -8 -45 -13t-97 -3l-486 2q-10 16 -7 35z" />
<glyph unicode="&#x2011;" horiz-adv-x="766" d="M45 611q3 19 16 37t34 30t47 12l592 -6q6 -62 -54 -94q-16 -8 -45 -13t-97 -3l-486 2q-10 16 -7 35z" />
<glyph unicode="&#x2012;" horiz-adv-x="766" d="M45 611q3 19 16 37t34 30t47 12l592 -6q6 -62 -54 -94q-16 -8 -45 -13t-97 -3l-486 2q-10 16 -7 35z" />
<glyph unicode="&#x2013;" d="M45 611q3 19 16 37t34 30t47 12l480 -4q6 -62 -54 -94q-16 -8 -45 -13t-97 -3h-374q-10 16 -7 35z" />
<glyph unicode="&#x2014;" horiz-adv-x="1056" d="M45 611q3 19 16 37t34 30t47 12l892 -4q6 -62 -54 -94q-16 -8 -45 -13t-97 -3h-786q-10 16 -7 35z" />
<glyph unicode="&#x2018;" horiz-adv-x="280" d="M64 757q-4 41 4 73q20 84 69 114t107 -2q-10 -12 -19 -21t-18 -23t-18 -34t-19 -54q-10 -46 7 -69t35 -43t25 -47t-21 -83q-50 10 -82 40t-49 69t-21 80z" />
<glyph unicode="&#x2019;" horiz-adv-x="280" d="M62 584q10 12 19 21t18 23t18 34t19 54q10 46 -7 69t-35 43t-25 47t21 83q50 -10 82 -40t49 -69t21 -80t-4 -73q-20 -84 -69 -114t-107 2z" />
<glyph unicode="&#x201a;" horiz-adv-x="280" d="M58 -72q10 12 19 21t18 23t18 34t19 54q10 46 -7 69t-35 43t-25 47t21 83q50 -10 82 -40t49 -69t21 -80t-4 -73q-20 -84 -69 -114t-107 2z" />
<glyph unicode="&#x201c;" horiz-adv-x="454" d="M30 731q-4 41 4 73q20 84 69 114t107 -2q-10 -12 -19 -21t-18 -23t-18 -34t-19 -54q-10 -46 7 -69t35 -43t25 -47t-21 -83q-50 10 -82 40t-49 69t-21 80zM236 749q-4 41 4 73q20 84 69 114t107 -2q-10 -12 -19 -21t-18 -23t-18 -34t-19 -54q-10 -46 7 -69t35 -43t25 -47 t-21 -83q-50 10 -82 40t-49 69t-21 80z" />
<glyph unicode="&#x201d;" horiz-adv-x="484" d="M62 584q10 12 19 21t18 23t18 34t19 54q10 46 -7 69t-35 43t-25 47t21 83q50 -10 82 -40t49 -69t21 -80t-4 -73q-20 -84 -69 -114t-107 2zM268 602q10 12 19 21t18 23t18 34t19 54q10 46 -7 69t-35 43t-25 47t21 83q50 -10 82 -40t49 -69t21 -80t-4 -73q-20 -84 -69 -114 t-107 2z" />
<glyph unicode="&#x201e;" horiz-adv-x="484" d="M38 -70q10 12 19 21t18 23t18 34t19 54q10 46 -7 69t-35 43t-25 47t21 83q50 -10 82 -40t49 -69t21 -80t-4 -73q-20 -84 -69 -114t-107 2zM244 -52q10 12 19 21t18 23t18 34t19 54q10 46 -7 69t-35 43t-25 47t21 83q50 -10 82 -40t49 -69t21 -80t-4 -73q-20 -84 -69 -114 t-107 2z" />
<glyph unicode="&#x2022;" horiz-adv-x="454" d="M60 690q0 78 53 110t117 29t117 -37t53 -88q0 -56 -25 -88t-63 -45t-82 -9t-82 21t-63 44t-25 63z" />
<glyph unicode="&#x2026;" horiz-adv-x="756" d="M60 74q0 36 25 51t55 14t55 -17t25 -42q0 -40 -25 -55t-55 -12t-55 20t-25 41zM312 74q0 36 25 51t55 14t55 -17t25 -42q0 -40 -25 -55t-55 -12t-55 20t-25 41zM564 74q0 36 25 51t55 14t55 -17t25 -42q0 -40 -25 -55t-55 -12t-55 20t-25 41z" />
<glyph unicode="&#x202f;" horiz-adv-x="492" />
<glyph unicode="&#x205f;" horiz-adv-x="615" />
<glyph unicode="&#x20ac;" horiz-adv-x="792" d="M9 471q3 19 16 37t34 30t47 12h12v20t2 20v23t2 23h-94q-10 16 -7 35t16 37t34 30t47 12h26q20 74 53 137t73 114t83 89t85 60q56 30 109 41t95 4t69 -31t27 -62q-84 0 -157 -25t-132 -71t-103 -112t-68 -146l432 -4q6 -62 -54 -94q-16 -8 -45 -13t-97 -3h-260 q-2 -14 -3 -28t-1 -30v-28l448 -4q6 -62 -54 -94q-16 -8 -45 -13t-97 -3h-246q12 -94 48 -164t99 -112t156 -54t219 12q-8 -54 -65 -83t-153 -33q-98 -4 -174 28t-130 91t-86 141t-44 176h-110q-10 16 -7 35z" />
<glyph unicode="&#x25fc;" horiz-adv-x="800" d="M0 0v800h800v-800h-800z" />
</font>
</defs>
</svg>
